<svg height="595" viewBox="0 0 595 595" width="595" xmlns="http://www.w3.org/2000/svg"><font horiz-adv-x="1000" horiz-origin-x="0" horiz-origin-y="0" vert-adv-y="90" vert-origin-x="45" vert-origin-y="90"><font-face underline-position="-75" underline-thickness="50"/><missing-glyph d="M222 117l0 67 56 0 0-67M225 234l-2 17C223 288 227 315 236 332 241 341 247 350 254 360 261 369 271 380 282 391 303 411 317 427 323 439 329 450 332 462 332 474 332 498 325 518 310 535 295 551 277 559 256 559 235 559 218 552 203 537 188 522 178 498 174 464l-50 8C129 520 143 555 168 577 193 598 223 609 259 609 295 609 325 597 348 574 371 550 383 518 383 478 383 457 379 437 371 420 362 402 345 381 320 358 295 336 281 319 277 306 273 293 271 269 271 234M462 50l0 617-412 0 0-617M512 718l0-718-512 0 0 718z" horiz-adv-x="512"/><glyph horiz-adv-x="0" unicode=" "/><glyph horiz-adv-x="260" unicode=" "/><glyph d="M215 186l-60 0 0 522 60 0M137 42C137 55 142 67 151 76 160 85 172 90 185 90 198 90 210 85 219 76 228 67 233 55 233 42 233 29 228 17 219 8 210-1 198-6 185-6 172-6 160-1 151 8 142 17 137 29 137 42z" horiz-adv-x="370" unicode="!"/><glyph d="M161 708l60 0 0-228-60 0M299 708l60 0 0-228-60 0z" horiz-adv-x="520" unicode="&quot;"/><glyph d="M121 229l-108 0 0 48 115 0 22 156-108 0 0 48 115 0 30 227 52 0-31-227 139 0 31 227 52 0-31-227 108 0 0-48-115 0-21-156 108 0 0-48-115 0-30-229-52 0 30 229-139 0-30-229-52 0M340 433l-138 0-21-156 138 0z" horiz-adv-x="520" unicode="#"/><glyph d="M281 42C300 43 317 47 333 55 349 62 363 72 375 85 387 98 396 113 403 130 410 147 413 165 413 185 413 195 412 205 409 216 406 227 402 237 396 247 389 257 380 266 369 275 357 284 342 291 324 298l-43 16M233 666C217 663 202 658 188 651 173 644 161 634 150 623 139 611 130 597 123 582 116 566 113 549 113 530 113 495 122 468 141 450 160 432 185 417 216 406l17-6M233-12C215-12 197-10 178-5 159-1 141 6 124 15 106 24 89 35 74 48 59 61 45 76 33 93l57 39C106 105 127 83 152 68 177 52 204 43 233 42l0 290-71 26C137 367 118 378 103 393 88 408 76 423 68 439 59 455 54 471 51 486 48 501 47 515 47 526 47 554 53 580 64 603 75 626 89 645 107 662 125 679 145 692 167 702 189 712 211 718 233 720l0 67 48 0 0-67C298 720 314 719 331 717 348 714 364 710 380 703 395 696 410 687 425 676 439 664 453 649 466 631l-55-40C396 615 376 634 353 647 329 660 305 666 281 666l0-282 70-24C366 355 381 347 396 338 411 329 425 317 438 303 450 288 460 271 468 251 475 231 479 208 479 181 479 152 474 127 463 104 452 81 437 61 419 44 400 27 379 14 355 5 331-5 306-11 281-12l0-67-48 0z" horiz-adv-x="520" unicode="$"/><glyph d="M614 742l46-28-457-748-45 28M38 548C38 572 43 594 52 615 61 636 73 654 89 670 104 685 122 698 143 707 164 716 186 720 210 720 234 720 256 716 277 707 298 698 316 685 332 670 347 654 360 636 369 615 378 594 382 572 382 548 382 524 378 502 369 481 360 460 347 442 332 427 316 411 298 399 277 390 256 381 234 376 210 376 186 376 164 381 143 390 122 399 104 411 89 427 73 442 61 460 52 481 43 502 38 524 38 548M92 548C92 531 95 516 102 502 108 487 116 475 127 464 138 453 150 445 165 439 179 433 194 430 210 430 226 430 241 433 256 439 270 445 282 453 293 464 304 475 312 487 319 502 325 516 328 531 328 548 328 565 325 580 319 595 312 609 304 621 293 632 282 643 270 651 256 657 241 663 226 666 210 666 194 666 179 663 165 657 150 651 138 643 127 632 116 621 108 609 102 595 95 580 92 565 92 548M433 160C433 184 438 206 447 227 456 248 468 266 484 282 499 297 517 310 538 319 559 328 581 332 605 332 629 332 651 328 672 319 693 310 711 297 727 282 742 266 755 248 764 227 773 206 777 184 777 160 777 136 773 114 764 93 755 72 742 54 727 39 711 23 693 11 672 2 651-7 629-12 605-12 581-12 559-7 538 2 517 11 499 23 484 39 468 54 456 72 447 93 438 114 433 136 433 160M487 160C487 143 490 128 497 114 503 99 511 87 522 76 533 65 545 57 560 51 574 45 589 42 605 42 621 42 636 45 651 51 665 57 677 65 688 76 699 87 707 99 714 114 720 128 723 143 723 160 723 177 720 192 714 207 707 221 699 233 688 244 677 255 665 263 651 269 636 275 621 278 605 278 589 278 574 275 560 269 545 263 533 255 522 244 511 233 503 221 497 207 490 192 487 177 487 160z" horiz-adv-x="815" unicode="%"/><glyph d="M487 206l102 184 68 0-128-226 161-169-89 0-106 114C466 70 435 40 401 17 366-6 324-18 275-18 245-18 217-13 191-3 164 6 141 20 122 38 103 56 87 78 76 103 65 128 59 157 59 188 59 215 64 239 73 260 82 281 95 299 110 315 125 331 142 346 161 359 180 372 200 384 221 397 211 409 201 422 191 435 180 448 171 461 163 475 155 489 148 504 143 519 138 534 135 549 135 565 135 590 140 613 150 633 159 653 172 670 189 684 205 697 224 708 246 715 267 722 290 726 313 726 334 726 354 722 373 715 392 708 410 698 425 685 440 672 451 656 460 638 469 619 473 599 473 576 473 551 469 529 460 510 451 491 439 475 424 460 409 445 392 432 373 421 354 410 335 399 315 388M308 666C278 666 253 657 232 639 211 620 201 596 201 566 201 554 204 542 209 529 214 516 220 504 228 492 235 480 244 469 253 458 262 447 270 438 277 429 291 436 306 444 321 453 336 462 350 472 363 483 376 494 386 507 395 522 403 536 407 552 407 571 407 599 398 622 379 640 360 657 337 666 308 666M259 355C243 346 227 336 212 325 196 314 182 303 169 290 156 277 145 262 137 246 129 229 125 211 125 190 125 167 129 147 138 129 146 111 157 96 172 83 186 70 203 60 223 53 242 46 263 42 285 42 304 42 321 45 338 51 354 57 369 65 383 75 397 85 410 97 422 110 434 123 445 136 455 151z" horiz-adv-x="704" unicode="&amp;"/><glyph d="M100 708l60 0 0-228-60 0z" horiz-adv-x="260" unicode="'"/><glyph d="M248 700C226 673 207 642 191 609 175 575 162 540 151 504 140 468 131 432 126 395 121 358 118 323 118 288 118 210 129 138 152 71 175 4 207-61 248-126l-47-30C178-124 157-90 140-53 122-17 107 20 95 58 83 96 74 134 68 173 61 212 58 250 58 288 58 367 70 446 95 523 119 600 153 670 197 732z" horiz-adv-x="260" unicode="("/><glyph d="M12-124C34-97 53-66 69-33 85 0 99 35 110 71 121 107 129 144 134 181 139 218 142 253 142 288 142 327 139 364 133 400 127 436 119 471 108 505 97 539 83 572 67 605 51 637 33 669 12 702l47 30C82 700 103 666 121 630 138 593 153 556 165 518 177 480 186 442 193 403 199 364 202 326 202 288 202 209 190 130 166 53 141-24 107-94 63-156z" horiz-adv-x="260" unicode=")"/><glyph d="M247 556l144 48 15-48-144-47 91-122-37-29-94 125-89-125-40 29 91 122-146 50 14 45 147-48 0 152 48 0z" horiz-adv-x="444" unicode="*"/><glyph d="M78 327l231 0 0 231 48 0 0-231 231 0 0-48-231 0 0-231-48 0 0 231-231 0z" horiz-adv-x="666" unicode="+"/><glyph d="M116 90l70 0-77-228-59 0z" horiz-adv-x="260" unicode=","/><glyph d="M43 264l247 0 0-54-247 0z" horiz-adv-x="333" unicode="-"/><glyph d="M82 42C82 55 87 67 96 76 105 85 117 90 130 90 143 90 155 85 164 76 173 67 178 55 178 42 178 29 173 17 164 8 155-1 143-6 130-6 117-6 105-1 96 8 87 17 82 29 82 42z" horiz-adv-x="260" unicode="."/><glyph d="M313 744l52-18-303-762-53 18z" horiz-adv-x="370" unicode="/"/><glyph d="M26 354C26 379 27 406 30 435 32 463 36 491 43 518 49 545 58 570 69 595 80 619 94 640 111 659 128 678 149 693 174 704 198 715 227 720 260 720 293 720 322 715 347 704 371 693 392 678 409 659 426 640 441 619 452 595 463 570 471 545 478 518 484 491 488 463 491 435 493 406 494 379 494 354 494 328 493 301 491 273 488 245 484 218 478 191 471 164 463 138 452 114 441 89 426 68 409 49 392 30 371 16 347 5 322-6 293-12 260-12 227-12 198-6 174 5 149 16 128 30 111 49 94 68 80 89 69 114 58 138 49 164 43 191 36 218 32 245 30 273 27 301 26 328 26 354M92 354C92 335 93 315 94 293 95 270 98 248 102 225 106 202 112 179 120 157 127 135 137 116 150 99 162 82 177 68 195 58 213 47 235 42 260 42 285 42 306 47 325 58 343 68 358 82 371 99 383 116 393 135 401 157 408 179 414 202 418 225 422 248 425 270 426 293 427 315 428 335 428 354 428 372 427 392 426 415 425 438 422 461 418 484 414 507 408 529 401 551 393 573 383 593 371 610 358 627 343 640 325 651 306 661 285 666 260 666 235 666 214 661 196 651 177 640 162 627 150 610 137 593 127 573 120 551 112 529 106 507 102 484 98 461 95 438 94 415 93 392 92 372 92 354z" horiz-adv-x="520" unicode="0"/><glyph d="M261 624l-1 0-128-105-37 46 175 143 51 0 0-708-60 0z" horiz-adv-x="520" unicode="1"/><glyph d="M41 70l266 281C319 363 331 376 343 390 355 403 366 418 376 433 385 448 393 463 399 480 405 497 408 515 408 534 408 575 395 608 368 631 341 654 308 666 267 666 230 666 199 655 174 634 149 613 132 585 125 550l-70 7C66 612 91 653 130 680 169 707 215 720 270 720 297 720 323 716 348 708 373 699 394 687 413 672 432 657 447 638 458 616 469 593 474 568 474 539 474 512 470 486 462 463 453 440 442 418 429 397 415 376 399 356 382 337 364 318 346 300 328 281l-221-227 372 0 0-54-438 0z" horiz-adv-x="520" unicode="2"/><glyph d="M106 148C119 114 138 88 161 70 184 51 215 42 255 42 281 42 304 46 324 54 344 62 361 73 374 87 387 101 396 117 403 136 410 155 413 175 413 196 413 222 408 244 397 263 386 282 371 297 354 309 336 320 316 329 294 334 271 339 249 342 226 342l-26 0 0 60 30 0C249 402 268 405 287 410 306 415 323 422 338 433 353 444 365 458 374 475 383 492 388 512 388 536 388 574 376 605 353 630 329 654 297 666 257 666 228 666 201 659 178 644 155 629 136 608 123 583l-57 32C85 652 112 678 146 695 179 712 216 720 257 720 284 720 309 716 333 709 357 701 378 690 396 675 414 660 428 641 439 618 449 595 454 569 454 538 454 499 443 465 422 436 401 406 369 385 328 374l0-2C351 368 371 361 390 350 408 339 424 325 437 309 450 293 461 275 468 255 475 235 479 214 479 191 479 163 475 137 466 112 457 87 443 66 425 48 406 29 383 15 356 4 329-7 297-12 260-12 207-12 162-1 125 22 88 44 60 79 41 127z" horiz-adv-x="520" unicode="3"/><glyph d="M329 174l-306 0 0 71 283 463 83 0 0-480 108 0 0-54-108 0 0-174-60 0M329 642l-2 0-250-414 252 0z" horiz-adv-x="520" unicode="4"/><glyph d="M451 654l-292 0-3-225C171 437 188 442 206 445 224 448 242 449 259 449 293 449 324 443 351 431 378 418 401 401 420 380 439 359 453 334 464 306 474 277 479 247 479 215 479 177 472 144 459 115 445 86 427 63 405 44 383 25 359 11 332 2 305-7 279-12 253-12 201-12 158-1 123 20 88 41 60 71 41 108l62 31C109 126 117 113 128 102 138 90 150 80 163 71 176 62 191 55 206 50 221 45 237 42 253 42 269 42 286 46 305 53 324 60 341 70 357 84 373 98 386 116 397 137 408 158 413 183 413 211 413 236 409 260 400 283 391 305 378 324 362 341 346 358 327 371 306 381 284 390 260 395 235 395 210 395 185 391 161 382 137 373 115 361 95 347l6 361 350 0z" horiz-adv-x="520" unicode="5"/><glyph d="M168 396l2 0C182 406 198 414 219 419 239 424 258 426 275 426 306 426 335 420 362 409 389 398 412 382 431 363 450 343 465 320 476 294 487 267 492 239 492 208 492 176 486 147 475 120 463 93 447 69 426 50 405 31 381 16 353 5 324-6 293-12 260-12 227-12 196-6 168 5 139 16 115 31 94 50 73 69 57 93 46 120 34 147 28 176 28 208 28 227 30 244 34 261 38 278 43 294 50 309 57 324 64 338 71 351 78 364 86 377 93 389l192 319 76 0M260 374C237 374 215 370 195 361 175 352 158 341 143 326 128 311 116 293 107 273 98 252 94 231 94 208 94 183 98 161 106 141 114 120 125 103 140 88 155 73 172 62 193 54 213 46 235 42 260 42 285 42 307 46 328 54 348 62 365 73 380 88 395 103 406 120 414 141 422 161 426 183 426 208 426 231 422 252 413 273 404 293 393 311 378 326 363 341 345 352 325 361 304 370 283 374 260 374z" horiz-adv-x="520" unicode="6"/><glyph d="M443 654l-282-654-67 0 287 654-340 0 0 54 402 0z" horiz-adv-x="520" unicode="7"/><glyph d="M66 536C66 563 71 588 81 611 91 634 105 653 122 669 139 685 160 698 184 707 207 716 233 720 260 720 287 720 313 716 337 707 360 698 381 685 398 669 415 653 429 634 439 611 449 588 454 563 454 536 454 519 451 503 446 487 441 470 433 455 424 441 414 426 402 414 388 403 374 392 358 385 341 380l0-1C364 374 384 366 401 355 418 343 432 329 444 313 455 296 464 278 470 259 476 239 479 218 479 197 479 165 474 136 463 111 452 85 436 63 417 45 397 27 374 13 347 3 320-7 291-12 260-12 229-12 200-7 173 3 146 13 123 27 104 45 84 63 69 85 58 111 47 136 41 165 41 197 41 218 44 239 50 259 56 278 65 296 77 313 88 329 103 343 120 355 137 366 156 374 179 379l0 1C162 385 146 392 132 403 118 414 106 426 97 441 87 455 79 470 74 487 69 503 66 519 66 536M132 536C132 518 135 501 142 486 148 470 157 456 168 445 179 433 192 424 208 417 223 410 241 406 260 406 279 406 296 410 312 417 328 424 342 433 353 445 364 456 372 470 379 486 385 501 388 518 388 536 388 575 376 607 352 631 327 654 297 666 260 666 223 666 193 654 169 631 144 607 132 575 132 536M107 197C107 176 111 156 118 137 125 118 136 102 149 88 162 74 178 63 197 55 216 46 237 42 260 42 283 42 304 46 323 55 342 63 358 74 371 88 384 102 395 118 402 137 409 156 413 176 413 197 413 220 409 242 401 261 393 280 382 296 369 310 355 323 339 334 320 341 301 348 281 352 260 352 239 352 219 348 200 341 181 334 165 323 152 310 138 296 127 280 119 261 111 242 107 220 107 197z" horiz-adv-x="520" unicode="8"/><glyph d="M352 312l-2 0C338 302 322 295 302 290 281 285 262 282 245 282 214 282 185 288 158 299 131 310 108 326 89 346 70 365 55 388 44 415 33 441 28 469 28 500 28 532 34 562 46 589 57 616 73 639 94 658 115 677 139 693 168 704 196 715 227 720 260 720 293 720 324 715 353 704 381 693 405 677 426 658 447 639 463 616 475 589 486 562 492 532 492 500 492 481 490 464 486 447 482 430 477 415 470 400 463 385 456 370 449 357 441 344 434 331 427 319l-192-319-76 0M260 334C283 334 304 338 325 347 345 356 363 368 378 383 393 398 404 415 413 435 422 455 426 477 426 500 426 525 422 547 414 568 406 588 395 605 380 620 365 635 348 646 328 654 307 662 285 666 260 666 235 666 213 662 193 654 172 646 155 635 140 620 125 605 114 588 106 568 98 547 94 525 94 500 94 477 98 455 107 435 116 415 128 398 143 383 158 368 175 356 195 347 215 338 237 334 260 334z" horiz-adv-x="520" unicode="9"/><glyph d="M82 420C82 433 87 445 96 454 105 463 117 468 130 468 143 468 155 463 164 454 173 445 178 433 178 420 178 407 173 395 164 386 155 377 143 372 130 372 117 372 105 377 96 386 87 395 82 407 82 420M82 42C82 55 87 67 96 76 105 85 117 90 130 90 143 90 155 85 164 76 173 67 178 55 178 42 178 29 173 17 164 8 155-1 143-6 130-6 117-6 105-1 96 8 87 17 82 29 82 42z" horiz-adv-x="260" unicode=":"/><glyph d="M116 90l70 0-77-228-59 0M82 420C82 433 87 445 96 454 105 463 117 468 130 468 143 468 155 463 164 454 173 445 178 433 178 420 178 407 173 395 164 386 155 377 143 372 130 372 117 372 105 377 96 386 87 395 82 407 82 420z" horiz-adv-x="260" unicode=";"/><glyph d="M584 511l-448-208 448-208 0-50-502 234 0 48 502 234z" horiz-adv-x="666" unicode="&lt;"/><glyph d="M78 399l510 0 0-48-510 0M78 255l510 0 0-48-510 0z" horiz-adv-x="666" unicode="="/><glyph d="M82 95l448 208-448 208 0 50 502-234 0-48-502-234z" horiz-adv-x="666" unicode="&gt;"/><glyph d="M204 270C204 292 208 311 216 328 223 345 233 360 245 373 256 386 269 399 282 411 295 423 308 436 320 450 331 463 341 478 349 494 356 510 360 529 360 551 360 587 350 616 329 639 308 661 280 672 243 672 208 672 179 661 157 640 134 619 119 591 112 556l-65 8C56 615 79 655 114 684 149 712 192 726 242 726 268 726 292 722 315 715 338 707 357 696 374 681 390 666 403 648 412 627 421 606 426 581 426 554 426 526 422 502 414 483 406 464 396 447 384 432 372 417 359 404 345 392 331 379 318 367 306 354 294 341 284 326 276 310 268 293 264 273 264 250l0-64-60 0M187 42C187 55 192 67 201 76 210 85 222 90 235 90 248 90 260 85 269 76 278 67 283 55 283 42 283 29 278 17 269 8 260-1 248-6 235-6 222-6 210-1 201 8 192 17 187 29 187 42z" horiz-adv-x="463" unicode="?"/><glyph d="M254 280C254 252 262 229 277 212 292 194 312 185 338 185 361 185 383 193 404 208 425 223 443 243 458 266 473 289 485 313 494 340 503 366 507 390 507 412 507 444 501 469 488 487 475 505 454 514 426 514 401 514 378 506 357 491 336 476 317 456 302 433 287 410 275 384 267 357 258 330 254 304 254 280M525 259C522 248 519 239 517 230 515 221 514 215 514 211 514 206 516 200 519 194 522 188 529 185 540 185 557 185 576 192 595 207 614 222 631 241 647 264 663 287 676 312 687 341 697 370 702 398 702 426 702 463 694 498 679 529 663 560 642 586 616 608 589 630 559 647 524 660 489 672 453 678 416 678 371 678 329 669 290 652 251 634 217 610 189 581 160 551 138 517 122 478 106 439 98 398 98 355 98 310 106 268 123 229 140 190 163 155 192 126 221 96 255 73 294 56 333 39 374 30 418 30 443 30 467 33 492 40 517 47 540 56 563 68 585 79 605 93 624 109 643 125 659 143 672 162l58 0C715 134 696 109 673 87 650 65 625 46 598 31 571 15 542 3 511-5 480-14 449-18 418-18 364-18 314-8 268 11 222 30 183 57 150 91 117 124 91 164 72 209 53 254 44 303 44 355 44 407 54 456 73 501 92 546 119 585 152 619 185 652 225 679 270 698 315 717 363 726 414 726 463 726 508 718 550 703 591 688 627 667 658 640 689 613 713 582 730 545 747 508 756 469 756 426 756 385 749 346 736 310 722 274 704 243 682 216 659 189 634 169 606 154 578 139 550 131 522 131 505 131 490 137 478 148 466 159 460 175 460 198l-2 0C445 181 426 166 403 152 380 138 355 131 329 131 306 131 287 135 270 143 253 150 239 161 228 175 217 188 208 204 203 222 197 239 194 258 194 278 194 313 200 347 211 382 222 417 237 448 258 475 278 502 303 525 332 542 361 559 393 568 430 568 452 568 473 562 493 550 512 537 527 516 536 485l2 0 24 64 60 0z" horiz-adv-x="800" unicode="@"/><glyph d="M314 708l68 0 298-708-74 0-77 188-375 0-80-188-69 0M345 636l-165-388 325 0z" horiz-adv-x="685" unicode="A"/><glyph d="M97 708l204 0C328 708 355 706 382 702 409 697 434 688 456 675 477 661 495 642 509 618 522 593 529 561 529 521 529 485 518 454 497 427 476 400 444 383 402 374l0-2C425 370 447 365 466 356 485 347 502 335 516 320 530 305 541 287 549 266 556 245 560 223 560 198 560 157 552 124 537 99 521 73 501 53 478 38 454 23 428 13 401 8 373 3 347 0 323 0l-226 0M163 402l137 0C334 402 362 406 383 415 404 423 421 433 433 445 445 457 453 470 457 484 461 497 463 510 463 521 463 546 459 566 451 583 442 599 431 612 417 622 403 631 387 638 368 642 349 646 330 648 309 648l-146 0M163 60l151 0C353 60 384 65 408 74 431 83 449 95 462 109 475 123 483 138 488 154 492 169 494 183 494 196 494 222 489 244 479 263 469 282 456 297 440 309 424 320 406 329 386 334 365 339 345 342 324 342l-161 0z" horiz-adv-x="630" unicode="B"/><glyph d="M680 111C646 65 607 32 562 12 517-8 469-18 417-18 363-18 314-9 269 10 224 28 185 54 153 87 121 120 96 159 78 205 60 250 51 300 51 354 51 408 60 458 78 503 96 548 121 588 153 621 185 654 224 679 269 698 314 717 363 726 417 726 465 726 510 718 552 701 593 684 630 655 661 615l-54-45C585 603 557 628 523 643 488 658 453 666 417 666 371 666 330 658 293 642 256 626 224 604 198 576 172 548 152 515 138 477 124 439 117 398 117 354 117 310 124 269 138 231 152 193 172 160 198 132 224 104 256 82 293 66 330 50 371 42 417 42 435 42 454 44 473 49 492 53 511 60 530 69 548 78 565 89 582 103 599 116 613 133 626 152z" horiz-adv-x="704" unicode="C"/><glyph d="M88 708l219 0C368 708 420 701 463 686 506 671 541 651 570 628 598 605 620 579 637 551 653 522 665 495 673 469 680 443 685 420 687 399 689 378 690 363 690 354 690 345 689 331 687 310 685 289 680 265 673 239 665 213 653 186 637 158 620 129 598 103 570 80 541 57 506 38 463 23 420 8 368 0 307 0l-219 0M154 60l136 0C337 60 380 66 421 78 462 89 497 107 527 131 557 155 581 186 598 223 615 260 624 303 624 354 624 405 615 449 598 486 581 523 557 553 527 577 497 601 462 619 421 631 380 642 337 648 290 648l-136 0z" horiz-adv-x="741" unicode="D"/><glyph d="M97 708l433 0 0-60-367 0 0-252 344 0 0-60-344 0 0-276 383 0 0-60-449 0z" horiz-adv-x="593" unicode="E"/><glyph d="M97 708l424 0 0-60-358 0 0-252 333 0 0-60-333 0 0-336-66 0z" horiz-adv-x="556" unicode="F"/><glyph d="M681 46C640 23 597 6 553-3 508-13 463-18 417-18 363-18 314-9 269 10 224 28 185 54 153 87 121 120 96 159 78 205 60 250 51 300 51 354 51 408 60 458 78 503 96 548 121 588 153 621 185 654 224 679 269 698 314 717 363 726 417 726 522 726 607 693 672 628l-48-50C613 591 600 603 585 614 569 625 552 634 534 642 515 649 496 655 476 660 456 664 436 666 417 666 371 666 330 658 293 642 256 626 224 604 198 576 172 548 152 515 138 477 124 439 117 398 117 354 117 310 124 269 138 231 152 193 172 160 198 132 224 104 256 82 293 66 330 50 371 42 417 42 455 42 491 45 524 51 557 57 588 68 615 84l0 238-170 0 0 60 236 0z" horiz-adv-x="778" unicode="G"/><glyph d="M97 708l66 0 0-312 396 0 0 312 66 0 0-708-66 0 0 336-396 0 0-336-66 0z" horiz-adv-x="722" unicode="H"/><glyph d="M97 708l66 0 0-708-66 0z" horiz-adv-x="260" unicode="I"/><glyph d="M385 208C385 187 384 163 381 137 378 111 370 87 357 64 344 41 324 21 299 6 273-10 237-18 191-18 139-18 98-5 68 22 37 48 17 83 7 127l66 12C89 74 128 42 191 42 214 42 234 46 251 54 267 61 280 72 290 85 300 98 307 114 312 133 317 151 319 171 319 192l0 516 66 0z" horiz-adv-x="482" unicode="J"/><glyph d="M97 708l66 0 0-312 6 0 343 312 91 0-358-324 378-384-95 0-359 366-6 0 0-366-66 0z" horiz-adv-x="611" unicode="K"/><glyph d="M97 708l66 0 0-648 330 0 0-60-396 0z" horiz-adv-x="500" unicode="L"/><glyph d="M90 708l99 0 258-594 258 594 94 0 0-708-66 0 0 624-2 0-270-624-29 0-274 624-2 0 0-624-66 0z" horiz-adv-x="889" unicode="M"/><glyph d="M97 708l85 0 431-620 2 0 0 620 66 0 0-708-85 0-431 620-2 0 0-620-66 0z" horiz-adv-x="778" unicode="N"/><glyph d="M51 354C51 408 60 458 78 503 96 548 121 588 153 621 185 654 224 679 269 698 314 717 363 726 417 726 471 726 521 717 566 698 611 679 649 654 681 621 713 588 738 548 756 503 774 458 783 408 783 354 783 300 774 250 756 205 738 159 713 120 681 87 649 54 611 28 566 10 521-9 471-18 417-18 363-18 314-9 269 10 224 28 185 54 153 87 121 120 96 159 78 205 60 250 51 300 51 354M117 354C117 310 124 269 138 231 152 193 172 160 198 132 224 104 256 82 293 66 330 50 371 42 417 42 463 42 505 50 542 66 579 82 610 104 636 132 662 160 682 193 696 231 710 269 717 310 717 354 717 398 710 439 696 477 682 515 662 548 636 576 610 604 579 626 542 642 505 658 463 666 417 666 371 666 330 658 293 642 256 626 224 604 198 576 172 548 152 515 138 477 124 439 117 398 117 354z" horiz-adv-x="834" unicode="O"/><glyph d="M97 708l204 0C326 708 352 705 379 700 406 694 430 684 453 670 475 656 493 637 508 613 522 588 529 558 529 521 529 489 523 461 512 438 500 415 484 396 465 381 445 366 422 354 397 347 371 340 344 336 316 336l-153 0 0-336-66 0M163 396l150 0C332 396 350 398 368 403 386 407 402 414 416 424 430 433 441 446 450 462 459 478 463 498 463 521 463 544 459 563 450 579 441 595 429 608 415 619 400 629 384 636 365 641 346 646 328 648 309 648l-146 0z" horiz-adv-x="574" unicode="P"/><glyph d="M813 0l-390 0C374 0 327 9 282 26 237 43 197 68 163 100 129 131 102 169 82 214 61 259 51 308 51 363 51 414 60 462 77 507 94 551 118 589 149 622 180 654 217 679 262 698 306 717 355 726 410 726 465 726 514 717 559 698 603 679 641 654 672 622 703 589 727 551 744 507 761 462 769 414 769 363 769 332 765 301 757 270 749 239 737 209 722 182 707 155 688 131 666 110 644 89 619 73 592 62l0-2 221 0M117 363C117 322 125 283 140 246 155 209 176 176 203 149 230 122 262 100 299 84 336 68 376 60 421 60 466 60 507 69 542 86 577 103 606 125 630 153 654 181 672 213 685 250 697 286 703 324 703 363 703 406 696 446 683 483 670 520 651 552 626 579 601 606 570 628 534 643 497 658 456 666 410 666 364 666 323 658 287 643 250 628 220 606 195 579 170 552 150 520 137 483 124 446 117 406 117 363z" horiz-adv-x="834" unicode="Q"/><glyph d="M163 396l140 0C338 396 366 400 388 409 409 418 426 428 438 441 450 454 458 467 463 482 467 497 469 510 469 522 469 534 467 547 463 562 458 577 450 590 438 603 426 616 409 626 388 635 366 644 338 648 303 648l-140 0M97 708l186 0C292 708 305 708 321 707 337 706 354 704 373 701 392 698 411 692 430 685 449 678 467 667 482 653 497 639 510 621 520 600 530 579 535 553 535 522 535 488 529 460 518 438 506 416 491 398 474 385 456 371 436 361 415 354 394 347 373 343 354 340l206-340-75 0-199 336-123 0 0-336-66 0z" horiz-adv-x="593" unicode="R"/><glyph d="M116 131C133 101 156 79 184 64 211 49 243 42 278 42 300 42 321 45 340 52 359 59 376 68 391 80 405 92 416 107 425 124 433 141 437 160 437 181 437 206 432 226 422 242 411 258 397 271 380 282 363 292 343 301 322 308 300 315 278 323 255 330 232 337 209 346 188 355 166 364 146 377 129 392 112 407 98 425 88 448 77 471 72 499 72 532 72 563 78 591 91 616 103 640 120 660 141 677 162 693 186 705 213 714 240 722 269 726 299 726 338 726 374 719 407 706 440 692 468 669 492 637l-57-41C418 619 399 637 377 649 354 660 328 666 297 666 276 666 255 663 236 658 217 652 200 644 186 633 171 622 160 608 151 591 142 574 138 555 138 532 138 497 147 470 165 451 183 432 206 417 233 406 260 395 289 385 321 377 352 368 382 357 409 343 436 329 458 310 476 285 494 260 503 225 503 181 503 149 497 121 485 96 473 71 457 51 437 34 416 17 393 4 366-5 339-14 312-18 283-18 236-18 193-10 154 7 115 23 81 50 53 89z" horiz-adv-x="556" unicode="S"/><glyph d="M254 648l-242 0 0 60 550 0 0-60-242 0 0-648-66 0z" horiz-adv-x="574" unicode="T"/><glyph d="M600 271C600 233 596 197 587 162 578 127 564 97 544 70 523 43 497 22 464 6 431-10 390-18 342-18 294-18 254-10 221 6 188 22 161 43 141 70 120 97 106 127 97 162 88 197 84 233 84 271l0 437 66 0 0-420C150 263 152 236 157 207 162 178 171 152 185 127 198 102 218 82 243 66 268 50 301 42 342 42 383 42 417 50 442 66 467 82 486 102 500 127 513 152 522 178 527 207 532 236 534 263 534 288l0 420 66 0z" horiz-adv-x="684" unicode="U"/><glyph d="M-3 708l71 0 228-621 230 621 70 0-269-708-66 0z" horiz-adv-x="593" unicode="V"/><glyph d="M5 708l68 0 176-627 2 0 179 627 84 0 179-627 2 0 176 627 68 0-206-708-81 0-179 630-2 0-179-630-81 0z" horiz-adv-x="944" unicode="W"/><glyph d="M267 372l-242 336 78 0 204-288 201 288 79 0-240-336 263-372-82 0-224 320-224-320-79 0z" horiz-adv-x="611" unicode="X"/><glyph d="M254 305l-260 403 79 0 214-336 219 336 74 0-260-403 0-305-66 0z" horiz-adv-x="574" unicode="Y"/><glyph d="M23 52l414 596-408 0 0 60 493 0 0-54-417-594 428 0 0-60-510 0z" horiz-adv-x="556" unicode="Z"/><glyph d="M224 684l-90 0 0-792 90 0 0-48-150 0 0 888 150 0z" horiz-adv-x="260" unicode="["/><glyph d="M361-18l-53-18-303 762 52 18z" horiz-adv-x="370" unicode="\"/><glyph d="M36-108l90 0 0 792-90 0 0 48 150 0 0-888-150 0z" horiz-adv-x="260" unicode="]"/><glyph d="M310 708l46 0 228-452-56 0-195 398-194-398-57 0z" horiz-adv-x="666" unicode="^"/><glyph d="M0-75l500 0 0-50-500 0z" horiz-adv-x="500" unicode="_"/><glyph d="M178 564l-50 0-134 144 80 0z" horiz-adv-x="240" unicode="`"/><glyph d="M439 194C439 171 439 151 440 133 440 115 440 98 441 83 442 68 443 53 444 40 445 27 446 13 448 0l-56 0C388 23 386 48 386 75l-2 0C367 45 345 23 320 9 294-5 261-12 222-12 202-12 182-9 163-4 144 1 126 9 111 20 96 31 83 45 74 62 64 79 59 100 59 125 59 160 68 188 86 209 104 230 126 245 153 256 179 266 207 273 237 276 266 279 292 280 315 280l70 0 0 28C385 348 373 377 348 394 323 411 292 420 255 420 202 420 155 403 114 368l-35 41C101 430 128 447 161 458 194 469 225 474 255 474 311 474 356 461 389 435 422 408 439 366 439 307M319 232C294 232 269 230 246 227 222 224 201 218 182 210 163 202 147 191 136 178 125 165 119 148 119 128 119 114 122 102 129 91 135 80 143 71 153 64 163 57 174 51 187 48 199 44 211 42 224 42 256 42 282 47 303 56 324 65 340 78 353 93 365 108 373 125 378 144 383 163 385 182 385 201l0 31z" horiz-adv-x="519" unicode="a"/><glyph d="M67 756l60 0 0-375 2 0C138 397 150 411 164 423 178 434 193 444 210 452 226 459 243 465 261 469 279 472 297 474 314 474 349 474 382 468 412 456 441 444 467 427 489 406 510 384 527 358 539 329 551 299 557 266 557 231 557 196 551 163 539 134 527 104 510 78 489 57 467 35 441 18 412 6 382-6 349-12 314-12 297-12 279-10 261-6 243-3 226 3 210 11 193 18 178 28 164 40 150 51 138 65 129 81l-2 0 0-81-60 0M121 231C121 205 126 181 136 158 146 135 160 115 177 98 194 81 215 67 238 57 261 47 287 42 314 42 342 42 367 47 390 57 413 67 432 81 448 98 464 115 476 135 485 158 493 181 497 205 497 231 497 257 493 282 485 305 476 328 464 348 448 365 432 382 413 395 390 405 367 415 342 420 314 420 287 420 261 415 238 405 215 395 194 382 177 365 160 348 146 328 136 305 126 282 121 257 121 231z" horiz-adv-x="611" unicode="b"/><glyph d="M467 68C444 41 419 21 390 8 361-5 330-12 297-12 262-12 229-6 199 6 169 18 143 35 122 57 101 78 84 104 72 134 60 163 54 196 54 231 54 266 60 299 72 329 84 358 101 384 122 406 143 427 169 444 199 456 229 468 262 474 297 474 331 474 363 467 392 453 421 439 446 419 469 394l-48-36C404 377 385 393 364 404 343 415 321 420 297 420 269 420 244 415 221 405 198 395 179 382 163 365 147 348 135 328 127 305 118 282 114 257 114 231 114 205 118 181 127 158 135 135 147 115 163 98 179 81 198 67 221 57 244 47 269 42 297 42 322 42 346 48 367 60 388 71 406 87 421 106z" horiz-adv-x="481" unicode="c"/><glyph d="M484 81l-2 0C473 65 461 51 447 40 433 28 418 18 402 11 385 3 368-3 350-6 332-10 314-12 297-12 262-12 229-6 199 6 169 18 143 35 122 57 101 78 84 104 72 134 60 163 54 196 54 231 54 266 60 299 72 329 84 358 101 384 122 406 143 427 169 444 199 456 229 468 262 474 297 474 314 474 332 472 350 469 368 465 385 459 402 452 418 444 433 434 447 423 461 411 473 397 482 381l2 0 0 375 60 0 0-756-60 0M490 231C490 257 485 282 475 305 465 328 451 348 434 365 417 382 396 395 373 405 350 415 324 420 297 420 269 420 244 415 221 405 198 395 179 382 163 365 147 348 135 328 127 305 118 282 114 257 114 231 114 205 118 181 127 158 135 135 147 115 163 98 179 81 198 67 221 57 244 47 269 42 297 42 324 42 350 47 373 57 396 67 417 81 434 98 451 115 465 135 475 158 485 181 490 205 490 231z" horiz-adv-x="611" unicode="d"/><glyph d="M488 87C465 52 436 26 402 11 367-4 329-12 288-12 253-12 221-6 192 6 163 18 139 35 118 57 97 78 82 104 71 134 60 163 54 196 54 232 54 267 60 299 71 328 82 357 98 383 119 405 140 426 164 443 192 456 220 468 251 474 285 474 320 474 352 468 379 456 406 443 428 427 447 407 465 386 479 363 488 337 497 311 502 285 502 258l0-42-388 0C114 203 117 187 122 168 127 148 136 129 149 110 162 91 180 75 203 62 225 49 254 42 289 42 320 42 349 49 378 64 407 79 429 99 444 124M442 270C442 291 438 310 430 328 421 346 410 362 396 376 381 389 364 400 345 408 325 416 304 420 282 420 249 420 222 413 201 400 179 387 162 371 149 354 136 337 127 320 122 304 117 287 114 276 114 270z" horiz-adv-x="556" unicode="e"/><glyph d="M114 408l-96 0 0 54 96 0 0 151C114 643 119 668 128 688 137 707 148 723 161 735 174 747 189 756 206 761 222 766 237 768 252 768 280 768 303 764 321 756l-12-52C296 711 278 714 255 714 201 714 174 673 174 591l0-129 108 0 0-54-108 0 0-408-60 0z" horiz-adv-x="296" unicode="f"/><glyph d="M544 30C544-27 536-74 519-109 502-144 482-172 457-191 432-210 405-223 376-230 347-237 321-240 298-240 275-240 252-238 230-233 207-229 186-223 166-214 146-206 128-196 112-184 95-172 81-158 69-143l47 44C137-129 164-151 196-165 228-179 262-186 298-186 329-186 355-182 376-174 397-166 414-155 428-142 441-129 452-115 460-99 467-84 473-68 477-52 480-37 482-22 483-8 484 6 484 17 484 26l0 64-2 0C465 62 441 40 412 24 382 8 347 0 307 0 273 0 241 6 211 19 181 31 155 48 133 70 110 91 93 116 80 145 67 174 60 204 60 237 60 270 67 300 80 329 93 358 110 383 133 404 155 425 181 442 211 455 241 468 273 474 307 474 347 474 382 466 412 450 441 434 465 412 482 384l2 0 0 78 60 0M486 237C486 262 481 286 472 309 462 331 449 350 433 367 416 383 397 396 375 406 352 415 328 420 303 420 278 420 254 415 232 406 209 396 190 383 174 367 157 350 144 331 135 309 125 286 120 262 120 237 120 212 125 188 135 166 144 143 157 124 174 108 190 91 209 78 232 69 254 59 278 54 303 54 328 54 352 59 375 69 397 78 416 91 433 108 449 124 462 143 472 166 481 188 486 212 486 237z" horiz-adv-x="611" unicode="g"/><glyph d="M80 756l60 0 0-375 2 0C154 406 174 428 202 447 230 465 263 474 300 474 336 474 365 468 388 457 411 446 429 431 442 413 455 394 464 373 469 349 474 325 476 300 476 275l0-275-60 0 0 272C416 291 414 309 411 327 408 344 402 360 394 374 385 388 374 399 359 408 344 416 324 420 300 420 278 420 257 416 238 409 218 401 201 389 187 374 172 358 161 338 153 315 144 291 140 263 140 231l0-231-60 0z" horiz-adv-x="556" unicode="h"/><glyph d="M90 462l60 0 0-462-60 0M75 645C75 658 79 668 88 677 97 686 107 690 120 690 133 690 143 686 152 677 161 668 165 658 165 645 165 632 161 622 152 613 143 604 133 600 120 600 107 600 97 604 88 613 79 622 75 632 75 645z" horiz-adv-x="240" unicode="i"/><glyph d="M150-81C150-105 148-127 145-146 141-165 134-182 124-196 114-210 101-221 84-228 67-236 45-240 18-240 2-240-14-237-30-231l9 53C-7-183 6-186 17-186 33-186 46-183 56-177 65-172 73-164 78-155 83-146 86-136 88-124 89-112 90-99 90-86l0 548 60 0M75 645C75 658 79 668 88 677 97 686 107 690 120 690 133 690 143 686 152 677 161 668 165 658 165 645 165 632 161 622 152 613 143 604 133 600 120 600 107 600 97 604 88 613 79 622 75 632 75 645z" horiz-adv-x="240" unicode="j"/><glyph d="M80 756l60 0 0-504 228 209 88 0-238-211 266-250-91 0-253 244 0-244-60 0z" horiz-adv-x="481" unicode="k"/><glyph d="M90 756l60 0 0-756-60 0z" horiz-adv-x="240" unicode="l"/><glyph d="M80 332C80 341 80 351 79 364 78 376 78 388 78 401 77 414 77 426 76 437 75 448 75 456 75 462l60 0C136 445 136 428 137 412 137 396 138 386 139 381l3 0C154 406 174 428 202 447 230 465 263 474 300 474 331 474 359 466 384 451 409 435 428 409 439 374 454 409 476 434 505 450 534 466 564 474 596 474 632 474 661 468 684 457 707 446 725 431 738 413 751 394 760 373 765 349 770 325 772 300 772 275l0-275-60 0 0 272C712 291 710 309 707 327 704 344 698 360 690 374 681 388 670 399 655 408 640 416 620 420 596 420 568 420 545 415 527 405 509 394 495 381 485 365 474 349 467 332 463 313 458 294 456 277 456 260l0-260-60 0 0 278C396 321 388 355 373 381 357 407 333 420 300 420 278 420 257 416 238 409 218 401 201 389 187 374 172 358 161 338 153 315 144 291 140 263 140 231l0-231-60 0z" horiz-adv-x="852" unicode="m"/><glyph d="M80 332C80 341 80 351 79 364 78 376 78 388 78 401 77 414 77 426 76 437 75 448 75 456 75 462l60 0C136 445 136 428 137 412 137 396 138 386 139 381l3 0C154 406 174 428 202 447 230 465 263 474 300 474 336 474 365 468 388 457 411 446 429 431 442 413 455 394 464 373 469 349 474 325 476 300 476 275l0-275-60 0 0 272C416 291 414 309 411 327 408 344 402 360 394 374 385 388 374 399 359 408 344 416 324 420 300 420 278 420 257 416 238 409 218 401 201 389 187 374 172 358 161 338 153 315 144 291 140 263 140 231l0-231-60 0z" horiz-adv-x="556" unicode="n"/><glyph d="M54 231C54 266 60 299 72 329 84 358 101 384 122 406 143 427 169 444 199 456 229 468 262 474 297 474 332 474 365 468 395 456 424 444 450 427 472 406 493 384 510 358 522 329 534 299 540 266 540 231 540 196 534 163 522 134 510 104 493 78 472 57 450 35 424 18 395 6 365-6 332-12 297-12 262-12 229-6 199 6 169 18 143 35 122 57 101 78 84 104 72 134 60 163 54 196 54 231M114 231C114 205 118 181 127 158 135 135 147 115 163 98 179 81 198 67 221 57 244 47 269 42 297 42 325 42 350 47 373 57 396 67 415 81 431 98 447 115 459 135 468 158 476 181 480 205 480 231 480 257 476 282 468 305 459 328 447 348 431 365 415 382 396 395 373 405 350 415 325 420 297 420 269 420 244 415 221 405 198 395 179 382 163 365 147 348 135 328 127 305 118 282 114 257 114 231z" horiz-adv-x="594" unicode="o"/><glyph d="M67 462l60 0 0-81 2 0C138 397 150 411 164 423 178 434 193 444 210 452 226 459 243 465 261 469 279 472 297 474 314 474 349 474 382 468 412 456 441 444 467 427 489 406 510 384 527 358 539 329 551 299 557 266 557 231 557 196 551 163 539 134 527 104 510 78 489 57 467 35 441 18 412 6 382-6 349-12 314-12 297-12 279-10 261-6 243-3 226 3 210 11 193 18 178 28 164 40 150 51 138 65 129 81l-2 0 0-309-60 0M121 231C121 205 126 181 136 158 146 135 160 115 177 98 194 81 215 67 238 57 261 47 287 42 314 42 342 42 367 47 390 57 413 67 432 81 448 98 464 115 476 135 485 158 493 181 497 205 497 231 497 257 493 282 485 305 476 328 464 348 448 365 432 382 413 395 390 405 367 415 342 420 314 420 287 420 261 415 238 405 215 395 194 382 177 365 160 348 146 328 136 305 126 282 121 257 121 231z" horiz-adv-x="611" unicode="p"/><glyph d="M484 81l-2 0C473 65 461 51 447 40 433 28 418 18 402 11 385 3 368-3 350-6 332-10 314-12 297-12 262-12 229-6 199 6 169 18 143 35 122 57 101 78 84 104 72 134 60 163 54 196 54 231 54 266 60 299 72 329 84 358 101 384 122 406 143 427 169 444 199 456 229 468 262 474 297 474 314 474 332 472 350 469 368 465 385 459 402 452 418 444 433 434 447 423 461 411 473 397 482 381l2 0 0 81 60 0 0-690-60 0M490 231C490 257 485 282 475 305 465 328 451 348 434 365 417 382 396 395 373 405 350 415 324 420 297 420 269 420 244 415 221 405 198 395 179 382 163 365 147 348 135 328 127 305 118 282 114 257 114 231 114 205 118 181 127 158 135 135 147 115 163 98 179 81 198 67 221 57 244 47 269 42 297 42 324 42 350 47 373 57 396 67 417 81 434 98 451 115 465 135 475 158 485 181 490 205 490 231z" horiz-adv-x="611" unicode="q"/><glyph d="M80 332C80 341 80 351 79 364 78 376 78 388 78 401 77 414 77 426 76 437 75 448 75 456 75 462l60 0C136 445 136 428 137 412 137 396 138 386 139 381 154 408 174 431 198 448 222 465 251 474 286 474 292 474 298 474 304 473 309 472 315 470 321 469l-7-59C306 413 298 414 291 414 265 414 243 410 224 402 205 393 189 382 177 367 164 352 155 335 149 316 143 296 140 275 140 252l0-252-60 0z" horiz-adv-x="333" unicode="r"/><glyph d="M81 118C94 93 112 75 137 62 162 49 188 42 215 42 228 42 240 44 253 48 266 52 277 58 287 65 297 72 305 81 312 92 318 102 321 114 321 127 321 148 314 164 301 175 287 186 270 194 250 200 230 206 208 211 184 216 160 220 138 227 118 236 98 245 81 257 68 273 54 289 47 312 47 341 47 364 52 383 61 400 70 417 83 431 98 442 113 453 129 461 148 466 167 471 186 474 205 474 243 474 276 467 304 453 331 439 353 417 368 387l-54-32C303 376 289 393 272 404 255 415 232 420 205 420 194 420 183 418 172 415 160 412 149 407 140 401 131 395 123 387 117 378 110 369 107 358 107 346 107 325 114 310 128 300 141 290 158 282 178 277 198 271 220 266 244 262 268 258 290 252 310 243 330 234 347 221 361 204 374 187 381 162 381 131 381 107 377 86 368 69 359 51 346 36 331 24 315 12 297 3 277-3 257-9 236-12 214-12 174-12 138-4 105 11 72 26 46 50 28 82z" horiz-adv-x="426" unicode="s"/><glyph d="M306 408l-132 0 0-301C174 86 180 70 191 59 202 48 218 42 238 42 249 42 261 44 273 47 284 50 295 53 306 58l5-54C300 0 287-4 272-7 257-10 244-12 233-12 212-12 193-9 178-2 163 4 150 12 141 23 132 34 125 46 121 61 116 75 114 90 114 107l0 301-100 0 0 54 100 0 0 133 60 0 0-133 132 0z" horiz-adv-x="333" unicode="t"/><glyph d="M471 130C471 121 471 111 472 99 473 86 473 74 474 61 474 48 474 37 475 26 476 15 476 6 476 0l-60 0C415 17 415 34 415 50 414 66 413 76 412 81l-3 0C397 56 377 34 349 16 321-3 288-12 251-12 215-12 186-6 163 5 140 16 122 31 109 50 96 68 87 89 82 113 77 137 75 162 75 187l0 275 60 0 0-272C135 171 137 153 140 136 143 118 149 102 158 88 166 74 178 63 193 55 208 46 227 42 251 42 273 42 294 46 314 54 333 61 350 73 365 89 379 104 390 124 399 148 407 171 411 199 411 231l0 231 60 0z" horiz-adv-x="556" unicode="u"/><glyph d="M15 462l68 0 154-397 150 397 61 0-182-462-62 0z" horiz-adv-x="463" unicode="v"/><glyph d="M15 462l66 0 112-387 2 0 129 387 57 0 137-387 2 0 109 387 60 0-136-462-62 0-138 378-2 0-129-378-62 0z" horiz-adv-x="704" unicode="w"/><glyph d="M198 250l-165 212 77 0 128-175 127 175 75 0-163-212 198-250-78 0-161 209-158-209-72 0z" horiz-adv-x="481" unicode="x"/><glyph d="M210-143C199-173 183-197 163-214 143-231 116-240 83-240 73-240 63-239 53-237 43-236 33-234 24-231l6 56C39-178 48-180 57-182 66-185 75-186 84-186 95-186 104-184 113-179 121-174 128-168 134-161 140-154 145-145 150-136 154-127 158-118 161-109l42 107-188 464 67 0 153-389 149 389 64 0z" horiz-adv-x="463" unicode="y"/><glyph d="M27 36l277 372-263 0 0 54 346 0 0-36-276-372 288 0 0-54-372 0z" horiz-adv-x="426" unicode="z"/><glyph d="M274 684l-23 0C241 684 233 681 226 676 219 670 213 663 209 654 204 645 201 634 199 623 197 611 196 599 196 586l0-141C196 419 193 397 187 378 181 359 174 343 166 330 158 317 150 308 143 301 135 294 129 290 126 289l0-2C129 285 135 281 143 274 150 267 158 258 166 246 174 233 181 218 187 199 193 180 196 157 196 131l0-142C196-23 197-35 199-46 201-58 204-68 209-77 213-86 219-94 226-99 233-105 241-108 251-108l23 0 0-48-50 0C196-156 174-145 159-123 144-102 136-72 136-35l0 146C136 130 135 149 133 168 131 186 127 202 122 217 117 231 110 242 101 251 92 260 80 264 66 264l0 48C80 312 92 316 101 325 110 334 117 345 122 360 127 374 131 390 133 409 135 428 136 447 136 466l0 145C136 649 144 679 159 700 174 721 196 732 224 732l50 0z" horiz-adv-x="333" unicode="{"/><glyph d="M135 750l0-1000-48 0 0 1000z" horiz-adv-x="222" unicode="|"/><glyph d="M59-108l23 0C92-108 101-105 108-99 115-94 120-86 125-77 129-68 132-58 134-46 136-35 137-23 137-10l0 141C137 157 140 180 146 199 152 218 159 233 167 246 175 259 183 268 191 275 198 282 204 286 207 287l0 2C204 291 198 295 191 302 183 309 175 318 167 331 159 343 152 359 146 378 140 397 137 419 137 445l0 142C137 599 136 611 134 623 132 634 129 645 125 654 120 663 115 670 108 676 101 681 92 684 82 684l-23 0 0 48 50 0C137 732 159 721 174 700 189 678 197 648 197 611l0-146C197 446 198 427 200 409 202 390 206 374 211 360 216 345 224 334 233 325 242 316 253 312 267 312l0-48C253 264 242 260 233 251 224 242 216 231 211 217 206 202 202 186 200 167 198 148 197 129 197 110l0-145C197-73 189-103 174-124 159-145 137-156 109-156l-50 0z" horiz-adv-x="333" unicode="}"/><glyph d="M563 332C558 321 551 310 544 299 536 288 527 278 517 270 507 261 496 255 483 250 470 245 455 242 438 242 419 242 400 246 381 254 361 262 342 270 323 278 304 287 286 294 269 301 252 307 238 310 225 310 205 310 188 303 175 289 161 275 148 259 137 242l-34 32C108 285 115 295 123 306 130 317 139 326 149 335 159 344 171 351 184 356 197 361 211 364 228 364 247 364 266 360 286 352 305 344 324 336 343 328 362 319 380 312 397 306 414 299 428 296 441 296 461 296 478 303 492 317 505 331 518 347 529 364z" horiz-adv-x="666" unicode="~"/><glyph d="M425 649C416 654 405 658 391 662 376 665 359 667 339 667 293 667 255 650 224 615 193 580 171 529 160 461l223 0-13-48-218 0C151 404 150 394 149 383 148 371 148 360 148 350 148 343 148 334 149 324 149 313 149 304 150 297l200 0-11-48-183 0C164 184 184 134 215 98 246 61 285 43 331 43 352 43 371 46 387 51 402 56 416 63 429 70l12-57C430 6 414-1 395-7 376-13 352-16 324-16 290-16 260-9 233 4 206 17 183 35 164 59 144 82 128 110 115 143 102 175 93 210 88 249l-63 0 12 48 48 0C84 304 83 313 83 324 82 334 82 343 82 350 82 359 82 370 83 382 84 393 85 404 86 413l-59 0 11 48 52 0C106 550 135 617 178 660 220 703 273 724 337 724 358 724 378 722 397 718 415 714 430 709 441 704z" horiz-adv-x="470" unicode="€"/><glyph d="M125 90l73 0-77-228-59 0z" horiz-adv-x="260" unicode="‚"/><glyph d="M395 371l-117 0-72-391C199-59 184-89 162-111 139-133 106-144 63-144 49-144 35-142 22-139 8-136-5-129-16-120l30 47C21-79 30-83 39-86 48-89 58-90 67-90 94-90 113-80 126-61 138-42 147-15 154 21l64 350-108 0 0 48 117 0 29 154C259 590 264 608 271 626 277 643 286 659 297 673 308 687 322 698 339 707 356 716 376 720 399 720 432 720 462 710 489 690l-32-45C448 651 439 656 430 660 420 664 410 666 399 666 374 666 355 657 342 640 329 622 321 601 316 576l-29-157 108 0z" horiz-adv-x="520" unicode="ƒ"/><glyph d="M342 90l73 0-77-228-59 0M168 90l73 0-77-228-59 0z" horiz-adv-x="520" unicode="„"/><glyph d="M119 42C119 55 124 67 133 76 142 85 154 90 167 90 180 90 192 85 201 76 210 67 215 55 215 42 215 29 210 17 201 8 192-1 180-6 167-6 154-6 142-1 133 8 124 17 119 29 119 42M452 42C452 55 457 67 466 76 475 85 487 90 500 90 513 90 525 85 534 76 543 67 548 55 548 42 548 29 543 17 534 8 525-1 513-6 500-6 487-6 475-1 466 8 457 17 452 29 452 42M785 42C785 55 790 67 799 76 808 85 820 90 833 90 846 90 858 85 867 76 876 67 881 55 881 42 881 29 876 17 867 8 858-1 846-6 833-6 820-6 808-1 799 8 790 17 785 29 785 42z" horiz-adv-x="1000" unicode="…"/><glyph d="M230 461l-192 0 0 48 192 0 0 199 60 0 0-199 192 0 0-48-192 0 0-587-60 0z" horiz-adv-x="520" unicode="†"/><glyph d="M230 73l-192 0 0 48 192 0 0 340-192 0 0 48 192 0 0 199 60 0 0-199 192 0 0-48-192 0 0-340 192 0 0-48-192 0 0-199-60 0z" horiz-adv-x="520" unicode="‡"/><glyph d="M85 708l70 0 108-144-65 0-81 108-81-108-59 0z" horiz-adv-x="240" unicode="ˆ"/><glyph d="M522 742l46-28-457-748-45 28M306 141C306 162 310 181 318 200 326 219 337 235 351 249 365 263 381 274 400 282 418 290 438 294 459 294 480 294 499 290 518 282 537 274 553 263 567 249 581 235 592 219 600 200 608 181 612 162 612 141 612 120 608 100 600 82 592 63 581 47 567 33 553 19 537 8 518 0 499-8 480-12 459-12 438-12 418-8 400 0 381 8 365 19 351 33 337 47 326 63 318 82 310 100 306 120 306 141M354 141C354 126 357 113 362 100 367 87 375 76 385 67 394 57 405 49 418 44 431 39 444 36 459 36 474 36 487 39 500 44 513 49 524 57 533 67 542 76 550 87 556 100 561 113 564 126 564 141 564 156 561 169 556 182 550 195 542 206 533 215 524 224 513 232 500 238 487 243 474 246 459 246 444 246 431 243 418 238 405 232 394 224 385 215 375 206 367 195 362 182 357 169 354 156 354 141M649 141C649 162 653 181 661 200 669 219 680 235 694 249 708 263 724 274 743 282 761 290 781 294 802 294 823 294 842 290 861 282 880 274 896 263 910 249 924 235 935 219 943 200 951 181 955 162 955 141 955 120 951 100 943 82 935 63 924 47 910 33 896 19 880 8 861 0 842-8 823-12 802-12 781-12 761-8 743 0 724 8 708 19 694 33 680 47 669 63 661 82 653 100 649 120 649 141M697 141C697 126 700 113 705 100 710 87 718 76 728 67 737 57 748 49 761 44 774 39 787 36 802 36 817 36 830 39 843 44 856 49 867 57 876 67 885 76 893 87 899 100 904 113 907 126 907 141 907 156 904 169 899 182 893 195 885 206 876 215 867 224 856 232 843 238 830 243 817 246 802 246 787 246 774 243 761 238 748 232 737 224 728 215 718 206 710 195 705 182 700 169 697 156 697 141M26 567C26 588 30 607 38 626 46 645 57 661 71 675 85 689 101 700 120 708 138 716 158 720 179 720 200 720 219 716 238 708 257 700 273 689 287 675 301 661 312 645 320 626 328 607 332 588 332 567 332 546 328 526 320 508 312 489 301 473 287 459 273 445 257 434 238 426 219 418 200 414 179 414 158 414 138 418 120 426 101 434 85 445 71 459 57 473 46 489 38 508 30 526 26 546 26 567M74 567C74 552 77 539 82 526 87 513 95 502 105 493 114 483 125 475 138 470 151 465 164 462 179 462 194 462 207 465 220 470 233 475 244 483 253 493 262 502 270 513 276 526 281 539 284 552 284 567 284 582 281 595 276 608 270 621 262 632 253 641 244 650 233 658 220 664 207 669 194 672 179 672 164 672 151 669 138 664 125 658 114 650 105 641 95 632 87 621 82 608 77 595 74 582 74 567z" horiz-adv-x="981" unicode="‰"/><glyph d="M116 131C133 101 156 79 184 64 211 49 243 42 278 42 300 42 321 45 340 52 359 59 376 68 391 80 405 92 416 107 425 124 433 141 437 160 437 181 437 206 432 226 422 242 411 258 397 271 380 282 363 292 343 301 322 308 300 315 278 323 255 330 232 337 209 346 188 355 166 364 146 377 129 392 112 407 98 425 88 448 77 471 72 499 72 532 72 563 78 591 91 616 103 640 120 660 141 677 162 693 186 705 213 714 240 722 269 726 299 726 338 726 374 719 407 706 440 692 468 669 492 637l-57-41C418 619 399 637 377 649 354 660 328 666 297 666 276 666 255 663 236 658 217 652 200 644 186 633 171 622 160 608 151 591 142 574 138 555 138 532 138 497 147 470 165 451 183 432 206 417 233 406 260 395 289 385 321 377 352 368 382 357 409 343 436 329 458 310 476 285 494 260 503 225 503 181 503 149 497 121 485 96 473 71 457 51 437 34 416 17 393 4 366-5 339-14 312-18 283-18 236-18 193-10 154 7 115 23 81 50 53 89M311 752l-70 0-109 144 62 0 83-114 86 114 54 0z" horiz-adv-x="556" unicode="Š"/><glyph d="M63 237l137 203 42-29-116-174 118-176-44-27z" horiz-adv-x="315" unicode="‹"/><glyph d="M581 60l304 0 0-60-472 0C366 0 321 8 278 25 235 42 197 66 165 97 132 128 107 165 88 209 69 252 59 301 59 354 59 413 70 464 92 508 113 552 142 589 178 619 214 648 255 671 302 686 348 701 396 708 445 708l432 0 0-60-296 0 0-252 279 0 0-60-279 0M515 648l-78 0C402 648 366 642 329 631 292 620 259 602 229 578 198 554 173 524 154 487 135 450 125 405 125 354 125 299 136 252 157 215 178 178 204 148 235 125 266 102 299 85 334 75 369 65 402 60 431 60l84 0z" horiz-adv-x="944" unicode="Œ"/><glyph d="M23 52l414 596-408 0 0 60 493 0 0-54-417-594 428 0 0-60-510 0M311 752l-70 0-109 144 62 0 83-114 86 114 54 0z" horiz-adv-x="556" unicode="Ž"/><glyph d="M134 480l-72 0 76 228 60 0z" horiz-adv-x="260" unicode="‘"/><glyph d="M125 708l73 0-77-228-59 0z" horiz-adv-x="260" unicode="’"/><glyph d="M178 480l-73 0 77 228 59 0M352 480l-73 0 77 228 59 0z" horiz-adv-x="520" unicode="“"/><glyph d="M342 708l73 0-77-228-59 0M168 708l73 0-77-228-59 0z" horiz-adv-x="520" unicode="”"/><glyph d="M73 354C73 379 78 402 87 423 96 444 109 463 125 479 141 495 160 508 181 517 202 526 225 531 250 531 275 531 298 526 319 517 340 508 359 495 375 479 391 463 404 444 413 423 422 402 427 379 427 354 427 329 422 306 413 285 404 264 391 245 375 229 359 213 340 200 319 191 298 182 275 177 250 177 225 177 202 182 181 191 160 200 141 213 125 229 109 245 96 264 87 285 78 306 73 329 73 354z" horiz-adv-x="500" unicode="•"/><glyph d="M0 264l500 0 0-54-500 0z" horiz-adv-x="500" unicode="–"/><glyph d="M0 264l1000 0 0-54-1000 0z" horiz-adv-x="1000" unicode="—"/><glyph d="M-36 581C-35 592-32 604-27 617-22 629-16 640-9 649-2 659 7 667 18 674 29 680 41 683 54 683 67 683 80 680 93 675 106 670 118 664 129 658 140 653 151 648 162 643 173 638 183 635 192 635 207 635 218 640 225 650 232 660 237 671 240 683l36 0C275 671 272 659 268 647 264 634 259 623 252 614 245 604 236 596 227 590 217 584 205 581 192 581 179 581 166 584 154 589 141 594 129 600 117 605 105 610 94 616 83 621 72 626 61 629 51 629 36 629 24 624 17 614 9 604 3 593 0 581z" horiz-adv-x="240" unicode="˜"/><glyph d="M217 660l-133 0 0 48 320 0 0-48-133 0 0-364-54 0M478 708l86 0 130-328 129 328 83 0 0-412-54 0 0 361-2 0-142-361-32 0-142 361-2 0 0-361-54 0z" horiz-adv-x="990" unicode="™"/><glyph d="M81 118C94 93 112 75 137 62 162 49 188 42 215 42 228 42 240 44 253 48 266 52 277 58 287 65 297 72 305 81 312 92 318 102 321 114 321 127 321 148 314 164 301 175 287 186 270 194 250 200 230 206 208 211 184 216 160 220 138 227 118 236 98 245 81 257 68 273 54 289 47 312 47 341 47 364 52 383 61 400 70 417 83 431 98 442 113 453 129 461 148 466 167 471 186 474 205 474 243 474 276 467 304 453 331 439 353 417 368 387l-54-32C303 376 289 393 272 404 255 415 232 420 205 420 194 420 183 418 172 415 160 412 149 407 140 401 131 395 123 387 117 378 110 369 107 358 107 346 107 325 114 310 128 300 141 290 158 282 178 277 198 271 220 266 244 262 268 258 290 252 310 243 330 234 347 221 361 204 374 187 381 162 381 131 381 107 377 86 368 69 359 51 346 36 331 24 315 12 297 3 277-3 257-9 236-12 214-12 174-12 138-4 105 11 72 26 46 50 28 82M246 564l-70 0-109 144 62 0 83-114 86 114 54 0z" horiz-adv-x="426" unicode="š"/><glyph d="M252 237l-137-203-42 29 116 174-118 176 44 27z" horiz-adv-x="315" unicode="›"/><glyph d="M803 270C803 291 800 310 794 329 788 347 779 363 767 376 755 389 740 400 722 408 703 416 681 420 656 420 633 420 612 416 594 408 575 400 560 389 547 376 534 362 525 346 518 328 511 310 507 291 507 270M507 216C506 192 508 170 515 149 522 128 532 109 545 94 558 78 575 65 596 56 616 47 640 42 667 42 696 42 721 49 744 62 767 75 785 93 800 116l47-34C821 48 794 24 765 10 736-5 700-12 657-12 616-12 580-3 548 15 516 33 492 62 475 102l-2 0C454 65 427 36 392 17 357-2 318-12 274-12 241-12 210-6 182 6 154 18 130 35 110 57 89 78 73 104 62 134 50 163 44 196 44 231 44 266 50 299 62 329 73 358 89 384 110 406 130 427 154 444 182 456 210 468 241 474 274 474 307 474 336 470 359 461 382 452 402 441 417 429 432 416 445 404 454 391 463 378 469 367 473 359 479 372 487 386 497 400 507 413 519 426 534 437 549 448 566 457 586 464 606 471 629 474 654 474 682 474 709 470 734 462 759 453 782 440 801 422 820 404 835 381 846 353 857 324 863 290 863 251l0-35M104 231C104 206 108 183 116 160 124 137 136 117 151 100 166 82 184 68 205 58 226 47 249 42 276 42 303 42 327 47 348 57 369 67 386 81 401 98 416 115 427 135 435 158 443 181 447 205 447 231 447 257 443 282 435 305 427 328 416 348 401 365 386 382 369 395 348 405 327 415 303 420 276 420 249 420 226 415 205 405 184 394 166 380 151 363 136 345 124 325 116 302 108 279 104 256 104 231z" horiz-adv-x="907" unicode="œ"/><glyph d="M27 36l277 372-263 0 0 54 346 0 0-36-276-372 288 0 0-54-372 0M246 564l-70 0-109 144 62 0 83-114 86 114 54 0z" horiz-adv-x="426" unicode="ž"/><glyph d="M254 305l-260 403 79 0 214-336 219 336 74 0-260-403 0-305-66 0M144 840C144 853 149 865 158 874 167 883 179 888 192 888 205 888 217 883 226 874 235 865 240 853 240 840 240 827 235 815 226 806 217 797 205 792 192 792 179 792 167 797 158 806 149 815 144 827 144 840M334 840C334 853 339 865 348 874 357 883 369 888 382 888 395 888 407 883 416 874 425 865 430 853 430 840 430 827 425 815 416 806 407 797 395 792 382 792 369 792 357 797 348 806 339 815 334 827 334 840z" horiz-adv-x="574" unicode="Ÿ"/><glyph horiz-adv-x="260" unicode=" "/><glyph d="M155 300l60 0 0-522-60 0M233 444C233 431 228 419 219 410 210 401 198 396 185 396 172 396 160 401 151 410 142 419 137 431 137 444 137 457 142 469 151 478 160 487 172 492 185 492 198 492 210 487 219 478 228 469 233 457 233 444z" horiz-adv-x="370" unicode="¡"/><glyph d="M256 417C233 414 212 406 195 395 177 384 162 370 150 353 137 336 128 318 122 297 115 276 112 255 112 233 112 211 115 190 122 170 129 149 138 131 151 114 164 97 179 83 197 72 214 60 234 52 256 47M304 42C327 43 349 50 369 62 388 73 405 88 420 106l46-38C424 17 370-10 304-12l0-69-48 0 0 72C225-5 198 4 173 18 148 32 126 50 108 72 90 93 76 118 67 145 57 172 52 202 52 233 52 264 57 294 67 321 77 348 91 372 109 393 127 414 149 431 174 445 199 458 226 467 256 471l0 72 48 0 0-71C337 471 367 464 395 451 422 437 447 418 468 394l-48-36C405 375 388 389 369 400 350 410 329 416 304 418z" horiz-adv-x="520" unicode="¢"/><glyph d="M58 54l105 0 0 288-95 0 0 54 95 0 0 117C163 536 167 559 174 584 181 608 193 630 210 651 227 671 248 688 275 701 302 714 334 720 373 720 426 720 473 701 516 664l-40-48C462 630 446 642 429 652 411 661 391 666 370 666 345 666 323 661 306 652 288 642 273 630 262 616 251 601 242 585 237 568 232 551 229 535 229 520l0-124 165 0 0-54-165 0 0-288 245 0 0-54-416 0z" horiz-adv-x="520" unicode="£"/><glyph d="M71 197C31 240 11 293 11 354 11 415 31 468 71 511l-57 55 34 37 57-56C127 564 151 578 178 587 205 596 232 600 260 600 288 600 315 596 342 587 369 578 393 564 415 547l57 56 34-37-57-55C489 468 509 415 509 354 509 293 489 240 449 197l57-55-34-37-57 56C393 144 369 131 342 122 315 113 288 108 260 108 232 108 205 113 178 122 151 131 127 144 105 161l-57-56-34 37M71 354C71 327 76 302 86 279 96 256 110 235 127 218 144 201 164 187 187 177 210 167 234 162 260 162 286 162 310 167 333 177 356 187 376 201 393 218 410 235 424 256 434 279 444 302 449 327 449 354 449 381 444 406 434 429 424 452 410 473 393 490 376 507 356 521 333 531 310 541 286 546 260 546 234 546 210 541 187 531 164 521 144 507 127 490 110 473 96 452 86 429 76 406 71 381 71 354z" horiz-adv-x="520" unicode="¤"/><glyph d="M227 180l-170 0 0 48 170 0 0 77-9 16-161 0 0 48 134 0-191 339 68 0 192-344 195 344 65 0-191-339 134 0 0-48-161 0-9-16 0-77 170 0 0-48-170 0 0-180-66 0z" horiz-adv-x="520" unicode="¥"/><glyph d="M135 675l0-350-48 0 0 350M135 175l0-350-48 0 0 350z" horiz-adv-x="222" unicode="¦"/><glyph d="M314 175C323 180 332 185 341 192 350 199 358 206 365 214 372 222 378 231 383 241 388 250 390 260 390 271 390 283 388 294 383 304 378 314 372 323 365 332 358 340 350 347 341 354 332 360 324 365 316 369l-75 41C230 407 219 402 208 397 197 392 186 385 177 378 167 370 159 361 153 351 147 340 144 328 144 315 144 290 151 271 164 259 177 247 193 236 212 227M125 6C136-24 153-46 175-61 197-76 224-84 255-84 270-84 284-82 299-78 314-74 327-68 338-59 349-51 359-41 366-29 373-17 376-3 376 13 376 36 369 55 354 70 339 85 321 98 299 110 277 121 253 133 227 144 201 155 177 168 155 183 133 198 115 215 100 236 85 256 78 282 78 313 78 330 81 345 87 358 92 371 100 383 110 394 120 405 131 414 144 422 157 429 170 436 184 442 160 457 140 474 125 494 110 514 102 539 102 569 102 595 107 618 118 637 129 656 143 673 161 686 178 699 198 709 220 716 242 723 265 726 288 726 305 726 321 724 338 721 354 717 369 711 384 704 398 697 411 687 422 675 433 663 441 649 448 632l-58-34C381 621 367 638 349 649 330 660 309 666 285 666 270 666 255 664 241 660 227 656 215 650 204 642 193 634 185 624 178 612 171 599 168 585 168 569 168 548 175 530 190 516 204 501 222 488 243 477 264 465 287 454 312 443 337 432 360 419 381 404 402 389 420 372 435 352 449 332 456 307 456 278 456 247 448 221 431 200 414 178 392 160 367 146 389 133 407 116 421 95 435 74 442 50 442 23 442-4 437-27 427-48 416-69 402-86 385-100 368-115 348-126 326-133 303-140 280-144 256-144 235-144 215-142 196-137 176-132 158-125 141-115 124-105 109-92 96-77 83-62 72-45 64-24z" horiz-adv-x="520" unicode="§"/><glyph d="M-23 652C-23 665-18 677-9 686 0 695 12 700 25 700 38 700 50 695 59 686 68 677 73 665 73 652 73 639 68 627 59 618 50 609 38 604 25 604 12 604 0 609-9 618-18 627-23 639-23 652M167 652C167 665 172 677 181 686 190 695 202 700 215 700 228 700 240 695 249 686 258 677 263 665 263 652 263 639 258 627 249 618 240 609 228 604 215 604 202 604 190 609 181 618 172 627 167 639 167 652z" horiz-adv-x="240" unicode="¨"/><glyph d="M540 431C534 458 520 482 498 503 476 524 447 534 410 535 385 535 362 530 342 521 322 511 305 498 292 481 278 464 267 445 260 424 253 402 249 379 249 354 249 329 253 306 260 284 267 262 278 243 292 227 305 210 322 197 342 188 362 178 385 173 410 173 428 173 445 176 460 182 475 187 488 195 499 205 510 214 519 225 526 238 533 250 537 263 540 277l54 0C591 252 584 231 573 212 562 193 549 178 532 165 515 152 497 142 476 135 455 128 432 125 409 125 375 125 345 131 318 142 291 153 269 169 251 190 233 211 219 235 210 263 200 290 195 321 195 354 195 387 200 417 210 445 219 473 233 497 251 518 269 539 291 555 318 566 345 577 375 583 409 583 432 583 455 580 476 573 497 566 515 557 532 544 549 531 562 515 573 496 584 477 591 456 594 431M28 354C28 405 38 454 58 499 77 544 104 583 138 617 171 650 211 677 256 697 301 716 349 726 400 726 451 726 500 716 545 697 590 677 629 650 663 617 696 583 723 544 743 499 762 454 772 405 772 354 772 303 762 255 743 210 723 165 696 125 663 92 629 58 590 31 545 12 500-8 451-18 400-18 349-18 301-8 256 12 211 31 171 58 138 92 104 125 77 165 58 210 38 255 28 303 28 354M82 354C82 310 90 269 107 230 124 191 146 158 175 129 204 100 237 78 276 61 315 44 356 36 400 36 444 36 485 44 524 61 563 78 596 100 625 129 654 158 676 191 693 230 710 269 718 310 718 354 718 398 710 439 693 478 676 517 654 550 625 579 596 608 563 630 524 647 485 664 444 672 400 672 356 672 315 664 276 647 237 630 204 608 175 579 146 550 124 517 107 478 90 439 82 398 82 354z" horiz-adv-x="800" unicode="©"/><glyph d="M250 602l0 9C249 622 248 631 245 640 242 648 238 655 232 661 225 666 217 671 207 674 196 677 183 678 167 678 147 678 130 675 116 669 101 663 87 654 73 643l-26 38C79 707 123 720 178 720 218 720 248 712 268 696 288 680 298 652 298 611l0-80C298 514 298 497 299 480 299 463 300 446 303 430l-49 0C252 437 251 445 251 452 251 459 251 467 250 476l-2 0C237 457 222 444 205 436 188 428 167 424 144 424 130 424 116 426 103 429 90 432 78 436 68 443 57 449 49 457 43 468 37 478 34 490 34 505 34 524 39 540 48 553 57 566 68 576 83 583 98 590 114 595 132 598 150 601 168 602 186 602M212 560C198 560 183 559 168 558 153 557 139 554 126 550 113 546 103 541 95 534 86 527 82 518 82 507 82 495 90 485 105 478 120 470 136 466 154 466 171 466 186 469 199 475 211 480 221 487 229 496 236 505 242 514 245 525 248 535 250 544 250 553l0 7z" horiz-adv-x="337" unicode="ª"/><glyph d="M63 237l137 203 42-29-116-174 118-176-44-27M229 237l137 203 42-29-116-174 118-176-44-27z" horiz-adv-x="481" unicode="«"/><glyph d="M540 351l-462 0 0 48 510 0 0-265-48 0z" horiz-adv-x="666" unicode="¬"/><glyph d="M43 264l247 0 0-54-247 0z" horiz-adv-x="333" unicode="­"/><glyph d="M319 141l-54 0 0 429 165 0C479 570 513 560 534 540 555 519 565 490 565 451 565 431 562 414 557 400 551 386 543 374 533 365 523 355 512 347 499 342 486 336 472 332 457 329l128-188-61 0-128 188-77 0M319 377l69 0C403 377 417 378 432 379 447 380 460 383 472 388 483 393 493 400 500 410 507 419 511 433 511 451 511 465 508 477 503 486 497 495 490 502 481 507 472 512 461 516 450 519 438 521 426 522 415 522l-96 0M28 354C28 405 38 454 58 499 77 544 104 583 138 617 171 650 211 677 256 697 301 716 349 726 400 726 451 726 500 716 545 697 590 677 629 650 663 617 696 583 723 544 743 499 762 454 772 405 772 354 772 303 762 255 743 210 723 165 696 125 663 92 629 58 590 31 545 12 500-8 451-18 400-18 349-18 301-8 256 12 211 31 171 58 138 92 104 125 77 165 58 210 38 255 28 303 28 354M82 354C82 310 90 269 107 230 124 191 146 158 175 129 204 100 237 78 276 61 315 44 356 36 400 36 444 36 485 44 524 61 563 78 596 100 625 129 654 158 676 191 693 230 710 269 718 310 718 354 718 398 710 439 693 478 676 517 654 550 625 579 596 608 563 630 524 647 485 664 444 672 400 672 356 672 315 664 276 647 237 630 204 608 175 579 146 550 124 517 107 478 90 439 82 398 82 354z" horiz-adv-x="800" unicode="®"/><glyph d="M252 606l-264 0 0 48 264 0z" horiz-adv-x="240" unicode="¯"/><glyph d="M200 432C180 432 161 436 144 444 126 451 111 462 98 475 85 488 74 503 67 521 60 538 56 557 56 577 56 597 60 616 67 633 74 650 85 666 98 679 111 692 126 702 144 709 161 716 180 720 200 720 220 720 239 716 256 709 273 702 289 692 302 679 315 666 325 650 333 633 340 616 344 597 344 577 344 557 340 538 333 521 325 503 315 488 302 475 289 462 273 451 256 444 239 436 220 432 200 432M200 480C227 480 249 489 268 508 287 527 296 549 296 576 296 603 287 625 268 644 249 663 227 672 200 672 173 672 151 663 132 644 113 625 104 603 104 576 104 549 113 527 132 508 151 489 173 480 200 480z" horiz-adv-x="400" unicode="°"/><glyph d="M78 375l228 0 0 183 48 0 0-183 234 0 0-48-234 0 0-183-48 0 0 183-228 0M82 96l502 0 0-48-502 0z" horiz-adv-x="666" unicode="±"/><glyph d="M23 332l172 168C213 517 228 534 241 550 254 566 260 586 260 609 260 628 253 643 238 655 223 666 203 672 176 672 151 672 131 666 118 654 105 642 95 628 90 613l-51 4C44 636 51 653 62 666 72 679 84 689 97 697 110 705 123 711 138 715 152 718 165 720 178 720 217 720 249 711 275 692 301 673 314 646 314 611 314 595 311 580 306 566 301 552 294 539 286 527 277 515 268 503 257 492 246 481 234 469 222 458l-127-121 220 0 0-48-292 0z" horiz-adv-x="338" unicode="²"/><glyph d="M127 536l23 0C160 536 171 537 182 540 193 543 204 547 213 553 222 558 230 566 236 576 242 585 245 597 245 611 245 628 238 643 224 655 210 666 191 672 168 672 149 672 132 668 117 659 102 650 89 637 80 622l-39 25C54 668 72 686 93 700 114 713 139 720 168 720 186 720 203 718 219 713 235 708 249 700 261 691 273 682 282 670 289 657 296 644 299 629 299 612 299 589 291 568 276 551 260 533 240 520 217 513l0-2C246 507 269 495 286 475 303 455 311 431 311 404 311 385 307 369 300 354 293 339 283 326 270 316 257 305 241 297 224 292 206 286 187 283 166 283 133 283 105 290 81 304 57 317 39 340 27 372l47 18C81 372 92 358 106 347 120 336 140 331 166 331 177 331 189 333 200 337 211 341 220 347 229 354 237 361 244 369 249 378 254 387 257 397 257 407 257 423 254 436 248 447 241 457 233 465 223 471 212 477 200 481 187 484 173 487 159 488 144 488l-17 0z" horiz-adv-x="338" unicode="³"/><glyph d="M166 708l80 0-134-144-50 0z" horiz-adv-x="240" unicode="´"/><glyph d="M471 130C471 121 471 111 472 99 473 86 473 74 474 61 474 48 474 37 475 26 476 15 476 6 476 0l-60 0C415 17 415 34 415 50 414 66 413 76 412 81l-3 0C397 56 377 34 349 16 321-3 288-12 251-12 224-12 201-9 182-2 163 5 147 14 134 26l0-254-59 0 0 690 60 0 0-272C135 171 137 153 140 136 143 118 149 102 158 88 166 74 178 63 193 55 208 46 227 42 251 42 273 42 294 46 314 54 333 61 350 73 365 89 379 104 390 124 399 148 407 171 411 199 411 231l0 231 60 0z" horiz-adv-x="556" unicode="µ"/><glyph d="M267 323C238 323 210 328 185 338 160 348 138 362 120 379 101 396 87 416 76 439 65 462 60 486 60 512 60 575 80 624 119 658 158 691 212 708 283 708l227 0 0-834-60 0 0 786-123 0 0-786-60 0z" horiz-adv-x="600" unicode="¶"/><glyph d="M82 318C82 331 87 343 96 352 105 361 117 366 130 366 143 366 155 361 164 352 173 343 178 331 178 318 178 305 173 293 164 284 155 275 143 270 130 270 117 270 105 275 96 284 87 293 82 305 82 318z" horiz-adv-x="260" unicode="·"/><glyph d="M124-64l2-2C135-61 145-59 157-59 178-59 198-65 215-77 232-89 240-107 240-131 240-146 237-159 230-170 223-181 215-189 204-196 193-203 180-208 167-211 154-214 141-216 128-216 95-216 63-209 33-195l14 32C69-174 94-180 123-180 130-180 137-179 144-177 151-176 158-173 165-170 171-167 176-162 180-157 184-152 186-145 186-137 186-122 180-111 168-104 156-98 143-95 130-95 115-95 100-98 86-103l-16 15 63 88 38 0z" horiz-adv-x="240" unicode="¸"/><glyph d="M177 660l-85-66-25 34 110 86 54 0 0-425-54 0z" horiz-adv-x="338" unicode="¹"/><glyph d="M34 572C34 594 38 614 45 632 52 650 63 666 77 679 91 692 108 702 127 709 146 716 168 720 192 720 215 720 236 717 256 710 275 703 292 693 307 680 321 667 332 651 340 633 348 615 352 595 352 572 352 550 348 530 340 512 332 494 321 479 307 466 292 453 275 442 256 435 236 428 215 424 192 424 168 424 146 428 127 435 108 442 91 453 77 466 63 479 52 494 45 512 38 530 34 550 34 572M82 572C82 558 85 545 90 532 95 519 103 508 113 498 122 488 134 480 148 475 161 469 176 466 192 466 208 466 223 469 237 475 250 480 262 488 272 498 282 507 290 518 296 531 301 544 304 557 304 572 304 602 294 627 274 648 253 668 226 678 192 678 176 678 161 675 148 670 135 664 123 656 113 646 103 636 95 625 90 612 85 599 82 586 82 572z" horiz-adv-x="386" unicode="º"/><glyph d="M252 237l-137-203-42 29 116 174-118 176 44 27M418 237l-137-203-42 29 116 174-118 176 44 27z" horiz-adv-x="481" unicode="»"/><glyph d="M146 660l-85-66-25 34 110 86 54 0 0-425-54 0M571 742l46-28-457-748-45 28M624 102l-190 0 0 45 185 277 59 0 0-274 64 0 0-48-64 0 0-102-54 0M624 352l-2 0-134-202 136 0z" horiz-adv-x="778" unicode="¼"/><glyph d="M138 660l-85-66-25 34 110 86 54 0 0-425-54 0M562 742l46-28-457-748-45 28M458 43l172 168C648 228 663 245 676 261 689 277 695 297 695 320 695 339 688 354 673 366 658 377 638 383 611 383 586 383 566 377 553 365 540 353 530 339 525 324l-51 4C479 347 486 364 497 377 507 390 519 400 532 408 545 416 558 422 573 426 587 429 600 431 613 431 652 431 684 422 710 403 736 384 749 357 749 322 749 306 746 291 741 277 736 263 729 250 721 238 712 226 703 214 692 203 681 192 669 180 657 169l-127-121 220 0 0-48-292 0z" horiz-adv-x="778" unicode="½"/><glyph d="M121 536l23 0C154 537 165 538 176 541 187 544 198 548 207 554 216 559 224 567 230 576 236 585 239 597 239 611 239 628 232 643 218 655 204 666 185 672 162 672 143 672 126 668 111 659 96 650 83 637 74 622l-39 25C48 668 66 686 87 700 108 713 133 720 162 720 180 720 197 718 213 713 229 708 243 700 255 691 267 682 276 670 283 657 290 644 293 629 293 612 293 589 285 568 270 551 254 533 234 520 211 513l0-2C240 507 263 495 280 475 297 455 305 431 305 404 305 385 301 369 294 354 287 339 277 326 264 316 251 305 235 297 218 292 200 286 181 283 160 283 127 283 99 290 75 304 51 317 33 340 20 372l48 18C75 372 86 358 100 347 114 336 134 331 160 331 171 331 183 333 194 337 205 341 214 347 223 354 231 361 238 369 243 378 248 387 251 397 251 407 251 423 248 436 242 447 235 457 227 465 217 471 206 477 194 481 181 484 167 487 153 488 138 488l-17 0M622 742l46-28-457-748-45 28M640 102l-190 0 0 45 185 277 59 0 0-274 64 0 0-48-64 0 0-102-54 0M638 352l-2 0-134-202 136 0z" horiz-adv-x="778" unicode="¾"/><glyph d="M259 216C259 194 255 175 248 158 240 141 230 126 219 113 207 100 194 87 181 75 168 63 155 50 144 37 132 23 122 8 115-8 107-24 103-43 103-65 103-101 113-130 134-152 155-175 183-186 220-186 255-186 284-175 307-154 329-133 344-105 351-70l65-8C407-129 384-169 349-197 314-226 271-240 221-240 195-240 171-236 148-228 125-221 106-210 90-195 73-180 60-162 51-141 42-120 37-95 37-68 37-40 41-16 49 3 57 22 67 39 79 54 91 69 104 82 118 95 132 107 145 120 157 133 169 146 179 160 187 177 195 193 199 213 199 236l0 64 60 0M276 444C276 431 271 419 262 410 253 401 241 396 228 396 215 396 203 401 194 410 185 419 180 431 180 444 180 457 185 469 194 478 203 487 215 492 228 492 241 492 253 487 262 478 271 469 276 457 276 444z" horiz-adv-x="463" unicode="¿"/><glyph d="M314 708l68 0 298-708-74 0-77 188-375 0-80-188-69 0M345 636l-165-388 325 0M401 752l-50 0-134 144 80 0z" horiz-adv-x="685" unicode="À"/><glyph d="M314 708l68 0 298-708-74 0-77 188-375 0-80-188-69 0M345 636l-165-388 325 0M389 896l80 0-134-144-50 0z" horiz-adv-x="685" unicode="Á"/><glyph d="M314 708l68 0 298-708-74 0-77 188-375 0-80-188-69 0M345 636l-165-388 325 0M308 896l70 0 108-144-65 0-81 108-81-108-59 0z" horiz-adv-x="685" unicode="Â"/><glyph d="M314 708l68 0 298-708-74 0-77 188-375 0-80-188-69 0M345 636l-165-388 325 0M187 769C188 780 191 792 196 805 201 817 207 828 214 837 221 847 230 855 241 862 252 868 264 871 277 871 290 871 303 868 316 863 329 858 341 852 352 846 363 841 374 836 385 831 396 826 406 823 415 823 430 823 441 828 448 838 455 848 460 859 463 871l36 0C498 859 495 847 491 835 487 822 482 811 475 802 468 792 459 784 449 778 439 772 428 769 415 769 402 769 389 772 377 777 364 782 352 788 340 793 328 798 317 804 306 809 295 814 284 817 274 817 259 817 247 812 240 802 232 792 226 781 223 769z" horiz-adv-x="685" unicode="Ã"/><glyph d="M314 708l68 0 298-708-74 0-77 188-375 0-80-188-69 0M345 636l-165-388 325 0M200 840C200 853 205 865 214 874 223 883 235 888 248 888 261 888 273 883 282 874 291 865 296 853 296 840 296 827 291 815 282 806 273 797 261 792 248 792 235 792 223 797 214 806 205 815 200 827 200 840M390 840C390 853 395 865 404 874 413 883 425 888 438 888 451 888 463 883 472 874 481 865 486 853 486 840 486 827 481 815 472 806 463 797 451 792 438 792 425 792 413 797 404 806 395 815 390 827 390 840z" horiz-adv-x="685" unicode="Ä"/><glyph d="M314 708l68 0 298-708-74 0-77 188-375 0-80-188-69 0M345 636l-165-388 325 0M250 837C250 850 253 862 258 874 263 885 269 895 278 904 286 913 296 920 307 925 318 930 331 932 344 932 357 932 369 929 380 924 391 919 401 912 410 903 418 894 424 883 429 872 434 861 436 849 436 836 436 824 434 812 429 801 424 790 418 780 410 771 401 762 391 755 380 750 369 745 357 742 344 742 331 742 318 745 307 750 296 755 286 761 278 770 269 779 263 789 258 800 253 811 250 824 250 837M400 837C400 854 395 868 384 879 373 890 360 896 343 896 326 896 313 890 302 879 291 867 286 853 286 836 286 819 292 806 303 795 314 784 327 778 343 778 360 778 373 784 384 795 395 806 400 820 400 837z" horiz-adv-x="685" unicode="Å"/><glyph d="M456 708l403 0 0-60-293 0 0-252 276 0 0-60-276 0 0-276 301 0 0-60-367 0 0 188-312 0-123-188-70 0M500 648l-12 0-261-400 273 0z" horiz-adv-x="926" unicode="Æ"/><glyph d="M680 111C646 65 607 32 562 12 517-8 469-18 417-18 412-18 408-18 404-18 399-18 395-18 390-17l-34-47 2-2C367-61 377-59 389-59 410-59 430-65 447-77 464-89 472-107 472-131 472-146 469-159 462-170 455-181 447-189 436-196 425-203 412-208 399-211 386-214 373-216 360-216 327-216 295-209 265-195l14 32C301-174 326-180 355-180 362-180 369-179 376-177 383-176 390-173 397-170 403-167 408-162 412-157 416-152 418-145 418-137 418-122 412-111 400-104 388-98 375-95 362-95 347-95 332-98 318-103l-16 15 54 75C311-7 269 7 232 28 194 49 162 75 135 107 108 139 88 176 73 218 58 260 51 305 51 354 51 408 60 458 78 503 96 548 121 588 153 621 185 654 224 679 269 698 314 717 363 726 417 726 465 726 510 718 552 701 593 684 630 655 661 615l-54-45C585 603 557 628 523 643 488 658 453 666 417 666 371 666 330 658 293 642 256 626 224 604 198 576 172 548 152 515 138 477 124 439 117 398 117 354 117 310 124 269 138 231 152 193 172 160 198 132 224 104 256 82 293 66 330 50 371 42 417 42 435 42 454 44 473 49 492 53 511 60 530 69 548 78 565 89 582 103 599 116 613 133 626 152z" horiz-adv-x="704" unicode="Ç"/><glyph d="M97 708l433 0 0-60-367 0 0-252 344 0 0-60-344 0 0-276 383 0 0-60-449 0M355 752l-50 0-134 144 80 0z" horiz-adv-x="593" unicode="È"/><glyph d="M97 708l433 0 0-60-367 0 0-252 344 0 0-60-344 0 0-276 383 0 0-60-449 0M343 896l80 0-134-144-50 0z" horiz-adv-x="593" unicode="É"/><glyph d="M97 708l433 0 0-60-367 0 0-252 344 0 0-60-344 0 0-276 383 0 0-60-449 0M262 896l70 0 108-144-65 0-81 108-81-108-59 0z" horiz-adv-x="593" unicode="Ê"/><glyph d="M97 708l433 0 0-60-367 0 0-252 344 0 0-60-344 0 0-276 383 0 0-60-449 0M154 840C154 853 159 865 168 874 177 883 189 888 202 888 215 888 227 883 236 874 245 865 250 853 250 840 250 827 245 815 236 806 227 797 215 792 202 792 189 792 177 797 168 806 159 815 154 827 154 840M344 840C344 853 349 865 358 874 367 883 379 888 392 888 405 888 417 883 426 874 435 865 440 853 440 840 440 827 435 815 426 806 417 797 405 792 392 792 379 792 367 797 358 806 349 815 344 827 344 840z" horiz-adv-x="593" unicode="Ë"/><glyph d="M97 708l66 0 0-708-66 0M188 752l-50 0-134 144 80 0z" horiz-adv-x="260" unicode="Ì"/><glyph d="M97 708l66 0 0-708-66 0M176 896l80 0-134-144-50 0z" horiz-adv-x="260" unicode="Í"/><glyph d="M97 708l66 0 0-708-66 0M95 896l70 0 108-144-65 0-81 108-81-108-59 0z" horiz-adv-x="260" unicode="Î"/><glyph d="M97 708l66 0 0-708-66 0M-13 840C-13 853-8 865 1 874 10 883 22 888 35 888 48 888 60 883 69 874 78 865 83 853 83 840 83 827 78 815 69 806 60 797 48 792 35 792 22 792 10 797 1 806-8 815-13 827-13 840M177 840C177 853 182 865 191 874 200 883 212 888 225 888 238 888 250 883 259 874 268 865 273 853 273 840 273 827 268 815 259 806 250 797 238 792 225 792 212 792 200 797 191 806 182 815 177 827 177 840z" horiz-adv-x="260" unicode="Ï"/><glyph d="M154 396l258 0 0-54-258 0 0-282 136 0C337 60 380 66 421 78 462 89 497 107 527 131 557 155 581 186 598 223 615 260 624 303 624 354 624 405 615 449 598 486 581 523 557 553 527 577 497 601 462 619 421 631 380 642 337 648 290 648l-136 0M88 342l-78 0 0 54 78 0 0 312 219 0C368 708 420 701 463 686 506 671 541 651 570 628 598 605 620 579 637 551 653 522 665 495 673 469 680 443 685 420 687 399 689 378 690 363 690 354 690 345 689 331 687 310 685 289 680 265 673 239 665 213 653 186 637 158 620 129 598 103 570 80 541 57 506 38 463 23 420 8 368 0 307 0l-219 0z" horiz-adv-x="741" unicode="Ð"/><glyph d="M97 708l85 0 431-620 2 0 0 620 66 0 0-708-85 0-431 620-2 0 0-620-66 0M233 769C234 780 237 792 242 805 247 817 253 828 260 837 267 847 276 855 287 862 298 868 310 871 323 871 336 871 349 868 362 863 375 858 387 852 398 846 409 841 420 836 431 831 442 826 452 823 461 823 476 823 487 828 494 838 501 848 506 859 509 871l36 0C544 859 541 847 537 835 533 822 528 811 521 802 514 792 505 784 495 778 485 772 474 769 461 769 448 769 435 772 423 777 410 782 398 788 386 793 374 798 363 804 352 809 341 814 330 817 320 817 305 817 293 812 286 802 278 792 272 781 269 769z" horiz-adv-x="778" unicode="Ñ"/><glyph d="M51 354C51 408 60 458 78 503 96 548 121 588 153 621 185 654 224 679 269 698 314 717 363 726 417 726 471 726 521 717 566 698 611 679 649 654 681 621 713 588 738 548 756 503 774 458 783 408 783 354 783 300 774 250 756 205 738 159 713 120 681 87 649 54 611 28 566 10 521-9 471-18 417-18 363-18 314-9 269 10 224 28 185 54 153 87 121 120 96 159 78 205 60 250 51 300 51 354M117 354C117 310 124 269 138 231 152 193 172 160 198 132 224 104 256 82 293 66 330 50 371 42 417 42 463 42 505 50 542 66 579 82 610 104 636 132 662 160 682 193 696 231 710 269 717 310 717 354 717 398 710 439 696 477 682 515 662 548 636 576 610 604 579 626 542 642 505 658 463 666 417 666 371 666 330 658 293 642 256 626 224 604 198 576 172 548 152 515 138 477 124 439 117 398 117 354M475 752l-50 0-134 144 80 0z" horiz-adv-x="834" unicode="Ò"/><glyph d="M51 354C51 408 60 458 78 503 96 548 121 588 153 621 185 654 224 679 269 698 314 717 363 726 417 726 471 726 521 717 566 698 611 679 649 654 681 621 713 588 738 548 756 503 774 458 783 408 783 354 783 300 774 250 756 205 738 159 713 120 681 87 649 54 611 28 566 10 521-9 471-18 417-18 363-18 314-9 269 10 224 28 185 54 153 87 121 120 96 159 78 205 60 250 51 300 51 354M117 354C117 310 124 269 138 231 152 193 172 160 198 132 224 104 256 82 293 66 330 50 371 42 417 42 463 42 505 50 542 66 579 82 610 104 636 132 662 160 682 193 696 231 710 269 717 310 717 354 717 398 710 439 696 477 682 515 662 548 636 576 610 604 579 626 542 642 505 658 463 666 417 666 371 666 330 658 293 642 256 626 224 604 198 576 172 548 152 515 138 477 124 439 117 398 117 354M463 896l80 0-134-144-50 0z" horiz-adv-x="834" unicode="Ó"/><glyph d="M51 354C51 408 60 458 78 503 96 548 121 588 153 621 185 654 224 679 269 698 314 717 363 726 417 726 471 726 521 717 566 698 611 679 649 654 681 621 713 588 738 548 756 503 774 458 783 408 783 354 783 300 774 250 756 205 738 159 713 120 681 87 649 54 611 28 566 10 521-9 471-18 417-18 363-18 314-9 269 10 224 28 185 54 153 87 121 120 96 159 78 205 60 250 51 300 51 354M117 354C117 310 124 269 138 231 152 193 172 160 198 132 224 104 256 82 293 66 330 50 371 42 417 42 463 42 505 50 542 66 579 82 610 104 636 132 662 160 682 193 696 231 710 269 717 310 717 354 717 398 710 439 696 477 682 515 662 548 636 576 610 604 579 626 542 642 505 658 463 666 417 666 371 666 330 658 293 642 256 626 224 604 198 576 172 548 152 515 138 477 124 439 117 398 117 354M382 896l70 0 108-144-65 0-81 108-81-108-59 0z" horiz-adv-x="834" unicode="Ô"/><glyph d="M51 354C51 408 60 458 78 503 96 548 121 588 153 621 185 654 224 679 269 698 314 717 363 726 417 726 471 726 521 717 566 698 611 679 649 654 681 621 713 588 738 548 756 503 774 458 783 408 783 354 783 300 774 250 756 205 738 159 713 120 681 87 649 54 611 28 566 10 521-9 471-18 417-18 363-18 314-9 269 10 224 28 185 54 153 87 121 120 96 159 78 205 60 250 51 300 51 354M117 354C117 310 124 269 138 231 152 193 172 160 198 132 224 104 256 82 293 66 330 50 371 42 417 42 463 42 505 50 542 66 579 82 610 104 636 132 662 160 682 193 696 231 710 269 717 310 717 354 717 398 710 439 696 477 682 515 662 548 636 576 610 604 579 626 542 642 505 658 463 666 417 666 371 666 330 658 293 642 256 626 224 604 198 576 172 548 152 515 138 477 124 439 117 398 117 354M261 769C262 780 265 792 270 805 275 817 281 828 288 837 295 847 304 855 315 862 326 868 338 871 351 871 364 871 377 868 390 863 403 858 415 852 426 846 437 841 448 836 459 831 470 826 480 823 489 823 504 823 515 828 522 838 529 848 534 859 537 871l36 0C572 859 569 847 565 835 561 822 556 811 549 802 542 792 533 784 523 778 513 772 502 769 489 769 476 769 463 772 451 777 438 782 426 788 414 793 402 798 391 804 380 809 369 814 358 817 348 817 333 817 321 812 314 802 306 792 300 781 297 769z" horiz-adv-x="834" unicode="Õ"/><glyph d="M51 354C51 408 60 458 78 503 96 548 121 588 153 621 185 654 224 679 269 698 314 717 363 726 417 726 471 726 521 717 566 698 611 679 649 654 681 621 713 588 738 548 756 503 774 458 783 408 783 354 783 300 774 250 756 205 738 159 713 120 681 87 649 54 611 28 566 10 521-9 471-18 417-18 363-18 314-9 269 10 224 28 185 54 153 87 121 120 96 159 78 205 60 250 51 300 51 354M117 354C117 310 124 269 138 231 152 193 172 160 198 132 224 104 256 82 293 66 330 50 371 42 417 42 463 42 505 50 542 66 579 82 610 104 636 132 662 160 682 193 696 231 710 269 717 310 717 354 717 398 710 439 696 477 682 515 662 548 636 576 610 604 579 626 542 642 505 658 463 666 417 666 371 666 330 658 293 642 256 626 224 604 198 576 172 548 152 515 138 477 124 439 117 398 117 354M274 840C274 853 279 865 288 874 297 883 309 888 322 888 335 888 347 883 356 874 365 865 370 853 370 840 370 827 365 815 356 806 347 797 335 792 322 792 309 792 297 797 288 806 279 815 274 827 274 840M464 840C464 853 469 865 478 874 487 883 499 888 512 888 525 888 537 883 546 874 555 865 560 853 560 840 560 827 555 815 546 806 537 797 525 792 512 792 499 792 487 797 478 806 469 815 464 827 464 840z" horiz-adv-x="834" unicode="Ö"/><glyph d="M334 337l199 198 33-34-199-198 198-198-34-34-197 199-199-199-35 34 200 198-198 198 34 34z" horiz-adv-x="666" unicode="×"/><glyph d="M144 97C114 130 91 168 75 211 59 254 51 302 51 354 51 408 60 458 78 503 96 548 121 588 153 621 185 654 224 679 269 698 314 717 363 726 417 726 464 726 507 719 546 706 585 692 621 672 652 647l74 81 34-31-75-81C716 583 741 545 758 501 775 456 783 407 783 354 783 300 774 250 756 205 738 159 713 120 681 87 649 54 611 28 566 10 521-9 471-18 417-18 369-18 325-11 285 4 245 18 209 38 178 65l-75-81-35 31M609 601C584 622 555 638 523 649 491 660 456 666 417 666 371 666 330 658 293 642 256 626 224 604 198 576 172 548 152 515 138 477 124 439 117 398 117 354 117 269 141 199 188 144M220 111C245 89 275 72 308 60 341 48 377 42 417 42 463 42 505 50 542 66 579 82 610 104 636 132 662 160 682 193 696 231 710 269 717 310 717 354 717 397 711 436 698 473 685 510 666 542 642 569z" horiz-adv-x="834" unicode="Ø"/><glyph d="M600 271C600 233 596 197 587 162 578 127 564 97 544 70 523 43 497 22 464 6 431-10 390-18 342-18 294-18 254-10 221 6 188 22 161 43 141 70 120 97 106 127 97 162 88 197 84 233 84 271l0 437 66 0 0-420C150 263 152 236 157 207 162 178 171 152 185 127 198 102 218 82 243 66 268 50 301 42 342 42 383 42 417 50 442 66 467 82 486 102 500 127 513 152 522 178 527 207 532 236 534 263 534 288l0 420 66 0M400 752l-50 0-134 144 80 0z" horiz-adv-x="684" unicode="Ù"/><glyph d="M600 271C600 233 596 197 587 162 578 127 564 97 544 70 523 43 497 22 464 6 431-10 390-18 342-18 294-18 254-10 221 6 188 22 161 43 141 70 120 97 106 127 97 162 88 197 84 233 84 271l0 437 66 0 0-420C150 263 152 236 157 207 162 178 171 152 185 127 198 102 218 82 243 66 268 50 301 42 342 42 383 42 417 50 442 66 467 82 486 102 500 127 513 152 522 178 527 207 532 236 534 263 534 288l0 420 66 0M388 896l80 0-134-144-50 0z" horiz-adv-x="684" unicode="Ú"/><glyph d="M600 271C600 233 596 197 587 162 578 127 564 97 544 70 523 43 497 22 464 6 431-10 390-18 342-18 294-18 254-10 221 6 188 22 161 43 141 70 120 97 106 127 97 162 88 197 84 233 84 271l0 437 66 0 0-420C150 263 152 236 157 207 162 178 171 152 185 127 198 102 218 82 243 66 268 50 301 42 342 42 383 42 417 50 442 66 467 82 486 102 500 127 513 152 522 178 527 207 532 236 534 263 534 288l0 420 66 0M307 896l70 0 108-144-65 0-81 108-81-108-59 0z" horiz-adv-x="684" unicode="Û"/><glyph d="M600 271C600 233 596 197 587 162 578 127 564 97 544 70 523 43 497 22 464 6 431-10 390-18 342-18 294-18 254-10 221 6 188 22 161 43 141 70 120 97 106 127 97 162 88 197 84 233 84 271l0 437 66 0 0-420C150 263 152 236 157 207 162 178 171 152 185 127 198 102 218 82 243 66 268 50 301 42 342 42 383 42 417 50 442 66 467 82 486 102 500 127 513 152 522 178 527 207 532 236 534 263 534 288l0 420 66 0M199 840C199 853 204 865 213 874 222 883 234 888 247 888 260 888 272 883 281 874 290 865 295 853 295 840 295 827 290 815 281 806 272 797 260 792 247 792 234 792 222 797 213 806 204 815 199 827 199 840M389 840C389 853 394 865 403 874 412 883 424 888 437 888 450 888 462 883 471 874 480 865 485 853 485 840 485 827 480 815 471 806 462 797 450 792 437 792 424 792 412 797 403 806 394 815 389 827 389 840z" horiz-adv-x="684" unicode="Ü"/><glyph d="M254 305l-260 403 79 0 214-336 219 336 74 0-260-403 0-305-66 0M333 896l80 0-134-144-50 0z" horiz-adv-x="574" unicode="Ý"/><glyph d="M97 708l65 0 0-156 139 0C326 552 352 549 379 544 406 538 430 528 453 514 475 500 493 481 508 457 522 432 529 402 529 365 529 333 523 305 512 282 500 259 484 240 465 225 445 210 422 198 397 191 371 184 344 180 316 180l-153 0 0-180-66 0M163 240l150 0C332 240 350 242 368 247 386 251 402 258 416 268 430 277 441 290 450 306 459 322 463 342 463 365 463 388 459 407 450 423 441 439 429 452 415 463 400 473 384 480 365 485 346 490 328 492 309 492l-146 0z" horiz-adv-x="574" unicode="Þ"/><glyph d="M266 458l15 0C321 458 354 470 379 493 404 516 416 547 416 587 416 629 404 661 380 682 355 703 324 714 286 714 259 714 236 709 217 699 198 689 183 675 172 658 161 641 153 621 148 598 143 575 140 550 140 525l0-525-60 0 0 534C80 568 85 599 94 628 103 657 116 681 134 702 152 723 174 739 201 751 227 762 257 768 291 768 317 768 341 764 364 756 387 748 406 737 423 722 439 707 452 688 462 666 471 643 476 618 476 589 476 550 467 517 449 490 431 463 407 444 377 435l0-2C396 430 414 424 433 416 452 408 469 396 484 380 499 364 512 343 522 318 531 292 536 260 536 221 536 185 530 153 518 125 505 96 488 72 466 53 444 34 418 19 388 9 358-1 325-6 289-6 281-6 273-6 266-5 258-4 250-3 242-1l0 58C251 54 259 51 268 50 277 49 286 48 295 48 322 48 346 52 369 60 391 68 410 80 426 95 442 110 454 128 463 149 472 170 476 194 476 220 476 251 471 279 461 302 450 325 436 345 419 360 401 375 381 386 358 393 335 400 312 404 287 404l-21 0z" horiz-adv-x="593" unicode="ß"/><glyph d="M439 194C439 171 439 151 440 133 440 115 440 98 441 83 442 68 443 53 444 40 445 27 446 13 448 0l-56 0C388 23 386 48 386 75l-2 0C367 45 345 23 320 9 294-5 261-12 222-12 202-12 182-9 163-4 144 1 126 9 111 20 96 31 83 45 74 62 64 79 59 100 59 125 59 160 68 188 86 209 104 230 126 245 153 256 179 266 207 273 237 276 266 279 292 280 315 280l70 0 0 28C385 348 373 377 348 394 323 411 292 420 255 420 202 420 155 403 114 368l-35 41C101 430 128 447 161 458 194 469 225 474 255 474 311 474 356 461 389 435 422 408 439 366 439 307M319 232C294 232 269 230 246 227 222 224 201 218 182 210 163 202 147 191 136 178 125 165 119 148 119 128 119 114 122 102 129 91 135 80 143 71 153 64 163 57 174 51 187 48 199 44 211 42 224 42 256 42 282 47 303 56 324 65 340 78 353 93 365 108 373 125 378 144 383 163 385 182 385 201l0 31M318 564l-50 0-134 144 80 0z" horiz-adv-x="519" unicode="à"/><glyph d="M439 194C439 171 439 151 440 133 440 115 440 98 441 83 442 68 443 53 444 40 445 27 446 13 448 0l-56 0C388 23 386 48 386 75l-2 0C367 45 345 23 320 9 294-5 261-12 222-12 202-12 182-9 163-4 144 1 126 9 111 20 96 31 83 45 74 62 64 79 59 100 59 125 59 160 68 188 86 209 104 230 126 245 153 256 179 266 207 273 237 276 266 279 292 280 315 280l70 0 0 28C385 348 373 377 348 394 323 411 292 420 255 420 202 420 155 403 114 368l-35 41C101 430 128 447 161 458 194 469 225 474 255 474 311 474 356 461 389 435 422 408 439 366 439 307M319 232C294 232 269 230 246 227 222 224 201 218 182 210 163 202 147 191 136 178 125 165 119 148 119 128 119 114 122 102 129 91 135 80 143 71 153 64 163 57 174 51 187 48 199 44 211 42 224 42 256 42 282 47 303 56 324 65 340 78 353 93 365 108 373 125 378 144 383 163 385 182 385 201l0 31M306 708l80 0-134-144-50 0z" horiz-adv-x="519" unicode="á"/><glyph d="M439 194C439 171 439 151 440 133 440 115 440 98 441 83 442 68 443 53 444 40 445 27 446 13 448 0l-56 0C388 23 386 48 386 75l-2 0C367 45 345 23 320 9 294-5 261-12 222-12 202-12 182-9 163-4 144 1 126 9 111 20 96 31 83 45 74 62 64 79 59 100 59 125 59 160 68 188 86 209 104 230 126 245 153 256 179 266 207 273 237 276 266 279 292 280 315 280l70 0 0 28C385 348 373 377 348 394 323 411 292 420 255 420 202 420 155 403 114 368l-35 41C101 430 128 447 161 458 194 469 225 474 255 474 311 474 356 461 389 435 422 408 439 366 439 307M319 232C294 232 269 230 246 227 222 224 201 218 182 210 163 202 147 191 136 178 125 165 119 148 119 128 119 114 122 102 129 91 135 80 143 71 153 64 163 57 174 51 187 48 199 44 211 42 224 42 256 42 282 47 303 56 324 65 340 78 353 93 365 108 373 125 378 144 383 163 385 182 385 201l0 31M225 708l70 0 108-144-65 0-81 108-81-108-59 0z" horiz-adv-x="519" unicode="â"/><glyph d="M439 194C439 171 439 151 440 133 440 115 440 98 441 83 442 68 443 53 444 40 445 27 446 13 448 0l-56 0C388 23 386 48 386 75l-2 0C367 45 345 23 320 9 294-5 261-12 222-12 202-12 182-9 163-4 144 1 126 9 111 20 96 31 83 45 74 62 64 79 59 100 59 125 59 160 68 188 86 209 104 230 126 245 153 256 179 266 207 273 237 276 266 279 292 280 315 280l70 0 0 28C385 348 373 377 348 394 323 411 292 420 255 420 202 420 155 403 114 368l-35 41C101 430 128 447 161 458 194 469 225 474 255 474 311 474 356 461 389 435 422 408 439 366 439 307M319 232C294 232 269 230 246 227 222 224 201 218 182 210 163 202 147 191 136 178 125 165 119 148 119 128 119 114 122 102 129 91 135 80 143 71 153 64 163 57 174 51 187 48 199 44 211 42 224 42 256 42 282 47 303 56 324 65 340 78 353 93 365 108 373 125 378 144 383 163 385 182 385 201l0 31M104 581C105 592 108 604 113 617 118 629 124 640 131 649 138 659 147 667 158 674 169 680 181 683 194 683 207 683 220 680 233 675 246 670 258 664 269 658 280 653 291 648 302 643 313 638 323 635 332 635 347 635 358 640 365 650 372 660 377 671 380 683l36 0C415 671 412 659 408 647 404 634 399 623 392 614 385 604 376 596 367 590 357 584 345 581 332 581 319 581 306 584 294 589 281 594 269 600 257 605 245 610 234 616 223 621 212 626 201 629 191 629 176 629 164 624 157 614 149 604 143 593 140 581z" horiz-adv-x="519" unicode="ã"/><glyph d="M439 194C439 171 439 151 440 133 440 115 440 98 441 83 442 68 443 53 444 40 445 27 446 13 448 0l-56 0C388 23 386 48 386 75l-2 0C367 45 345 23 320 9 294-5 261-12 222-12 202-12 182-9 163-4 144 1 126 9 111 20 96 31 83 45 74 62 64 79 59 100 59 125 59 160 68 188 86 209 104 230 126 245 153 256 179 266 207 273 237 276 266 279 292 280 315 280l70 0 0 28C385 348 373 377 348 394 323 411 292 420 255 420 202 420 155 403 114 368l-35 41C101 430 128 447 161 458 194 469 225 474 255 474 311 474 356 461 389 435 422 408 439 366 439 307M319 232C294 232 269 230 246 227 222 224 201 218 182 210 163 202 147 191 136 178 125 165 119 148 119 128 119 114 122 102 129 91 135 80 143 71 153 64 163 57 174 51 187 48 199 44 211 42 224 42 256 42 282 47 303 56 324 65 340 78 353 93 365 108 373 125 378 144 383 163 385 182 385 201l0 31M117 652C117 665 122 677 131 686 140 695 152 700 165 700 178 700 190 695 199 686 208 677 213 665 213 652 213 639 208 627 199 618 190 609 178 604 165 604 152 604 140 609 131 618 122 627 117 639 117 652M307 652C307 665 312 677 321 686 330 695 342 700 355 700 368 700 380 695 389 686 398 677 403 665 403 652 403 639 398 627 389 618 380 609 368 604 355 604 342 604 330 609 321 618 312 627 307 639 307 652z" horiz-adv-x="519" unicode="ä"/><glyph d="M439 194C439 171 439 151 440 133 440 115 440 98 441 83 442 68 443 53 444 40 445 27 446 13 448 0l-56 0C388 23 386 48 386 75l-2 0C367 45 345 23 320 9 294-5 261-12 222-12 202-12 182-9 163-4 144 1 126 9 111 20 96 31 83 45 74 62 64 79 59 100 59 125 59 160 68 188 86 209 104 230 126 245 153 256 179 266 207 273 237 276 266 279 292 280 315 280l70 0 0 28C385 348 373 377 348 394 323 411 292 420 255 420 202 420 155 403 114 368l-35 41C101 430 128 447 161 458 194 469 225 474 255 474 311 474 356 461 389 435 422 408 439 366 439 307M319 232C294 232 269 230 246 227 222 224 201 218 182 210 163 202 147 191 136 178 125 165 119 148 119 128 119 114 122 102 129 91 135 80 143 71 153 64 163 57 174 51 187 48 199 44 211 42 224 42 256 42 282 47 303 56 324 65 340 78 353 93 365 108 373 125 378 144 383 163 385 182 385 201l0 31M167 649C167 662 170 674 175 686 180 697 186 707 195 716 203 725 213 732 224 737 235 742 248 744 261 744 274 744 286 741 297 736 308 731 318 724 327 715 335 706 341 695 346 684 351 673 353 661 353 648 353 636 351 624 346 613 341 602 335 592 327 583 318 574 308 567 297 562 286 557 274 554 261 554 248 554 235 557 224 562 213 567 203 573 195 582 186 591 180 601 175 613 170 624 167 636 167 649M317 649C317 666 312 680 301 691 290 702 277 708 260 708 243 708 230 702 219 691 208 679 203 665 203 648 203 631 209 618 220 607 231 596 244 590 260 590 277 590 290 596 301 607 312 618 317 632 317 649z" horiz-adv-x="519" unicode="å"/><glyph d="M392 279C392 324 381 359 359 384 336 408 300 420 250 420 197 420 150 403 109 368l-35 41C96 430 123 447 156 458 189 469 220 474 250 474 292 474 328 467 359 454 389 440 413 415 430 378 439 394 449 408 462 420 475 432 489 442 504 450 519 458 534 464 551 468 567 472 583 474 599 474 627 474 654 470 679 462 704 453 727 440 746 422 765 404 780 381 791 353 802 324 808 290 808 251l0-35-356 0C451 192 453 170 460 149 467 128 477 109 490 94 503 78 520 65 541 56 561 47 585 42 612 42 641 42 666 49 689 62 712 75 730 93 745 116l47-34C766 48 739 24 710 10 681-5 645-12 602-12 561-12 525-3 493 15 461 33 437 62 420 102 401 61 373 31 337 14 301-3 261-12 217-12 197-12 177-9 158-4 139 1 121 9 106 20 91 31 78 45 69 62 59 79 54 100 54 125 54 140 57 156 63 173 68 190 79 205 95 220 111 234 134 246 163 256 192 265 230 270 277 270l115 0M275 216C240 216 212 213 191 206 170 199 153 192 142 183 131 174 123 164 120 154 116 143 114 135 114 128 114 114 117 102 124 91 130 80 138 71 148 64 158 57 169 51 182 48 194 44 206 42 219 42 250 42 276 47 298 56 320 65 338 78 352 94 366 109 376 128 383 149 389 170 392 192 392 216M748 270C748 291 745 310 739 329 733 347 724 363 712 376 700 389 685 400 667 408 648 416 626 420 601 420 578 420 557 416 539 408 520 400 505 389 492 376 479 362 470 346 463 328 456 310 452 291 452 270z" horiz-adv-x="852" unicode="æ"/><glyph d="M467 68C444 41 419 21 390 8 361-5 330-12 297-12 291-12 286-12 283-11l-38-53 2-2C256-61 266-59 278-59 299-59 319-65 336-77 353-89 361-107 361-131 361-146 358-159 351-170 344-181 336-189 325-196 314-203 301-208 288-211 275-214 262-216 249-216 216-216 184-209 154-195l14 32C190-174 215-180 244-180 251-180 258-179 265-177 272-176 279-173 286-170 292-167 297-162 301-157 305-152 307-145 307-137 307-122 301-111 289-104 277-98 264-95 251-95 236-95 221-98 207-103l-16 15 57 81C219-2 193 7 169 21 145 34 125 51 108 72 91 93 77 117 68 144 59 171 54 200 54 231 54 266 60 299 72 329 84 358 101 384 122 406 143 427 169 444 199 456 229 468 262 474 297 474 331 474 363 467 392 453 421 439 446 419 469 394l-48-36C404 377 385 393 364 404 343 415 321 420 297 420 269 420 244 415 221 405 198 395 179 382 163 365 147 348 135 328 127 305 118 282 114 257 114 231 114 205 118 181 127 158 135 135 147 115 163 98 179 81 198 67 221 57 244 47 269 42 297 42 322 42 346 48 367 60 388 71 406 87 421 106z" horiz-adv-x="481" unicode="ç"/><glyph d="M488 87C465 52 436 26 402 11 367-4 329-12 288-12 253-12 221-6 192 6 163 18 139 35 118 57 97 78 82 104 71 134 60 163 54 196 54 232 54 267 60 299 71 328 82 357 98 383 119 405 140 426 164 443 192 456 220 468 251 474 285 474 320 474 352 468 379 456 406 443 428 427 447 407 465 386 479 363 488 337 497 311 502 285 502 258l0-42-388 0C114 203 117 187 122 168 127 148 136 129 149 110 162 91 180 75 203 62 225 49 254 42 289 42 320 42 349 49 378 64 407 79 429 99 444 124M442 270C442 291 438 310 430 328 421 346 410 362 396 376 381 389 364 400 345 408 325 416 304 420 282 420 249 420 222 413 201 400 179 387 162 371 149 354 136 337 127 320 122 304 117 287 114 276 114 270M336 564l-50 0-134 144 80 0z" horiz-adv-x="556" unicode="è"/><glyph d="M488 87C465 52 436 26 402 11 367-4 329-12 288-12 253-12 221-6 192 6 163 18 139 35 118 57 97 78 82 104 71 134 60 163 54 196 54 232 54 267 60 299 71 328 82 357 98 383 119 405 140 426 164 443 192 456 220 468 251 474 285 474 320 474 352 468 379 456 406 443 428 427 447 407 465 386 479 363 488 337 497 311 502 285 502 258l0-42-388 0C114 203 117 187 122 168 127 148 136 129 149 110 162 91 180 75 203 62 225 49 254 42 289 42 320 42 349 49 378 64 407 79 429 99 444 124M442 270C442 291 438 310 430 328 421 346 410 362 396 376 381 389 364 400 345 408 325 416 304 420 282 420 249 420 222 413 201 400 179 387 162 371 149 354 136 337 127 320 122 304 117 287 114 276 114 270M324 708l80 0-134-144-50 0z" horiz-adv-x="556" unicode="é"/><glyph d="M488 87C465 52 436 26 402 11 367-4 329-12 288-12 253-12 221-6 192 6 163 18 139 35 118 57 97 78 82 104 71 134 60 163 54 196 54 232 54 267 60 299 71 328 82 357 98 383 119 405 140 426 164 443 192 456 220 468 251 474 285 474 320 474 352 468 379 456 406 443 428 427 447 407 465 386 479 363 488 337 497 311 502 285 502 258l0-42-388 0C114 203 117 187 122 168 127 148 136 129 149 110 162 91 180 75 203 62 225 49 254 42 289 42 320 42 349 49 378 64 407 79 429 99 444 124M442 270C442 291 438 310 430 328 421 346 410 362 396 376 381 389 364 400 345 408 325 416 304 420 282 420 249 420 222 413 201 400 179 387 162 371 149 354 136 337 127 320 122 304 117 287 114 276 114 270M243 708l70 0 108-144-65 0-81 108-81-108-59 0z" horiz-adv-x="556" unicode="ê"/><glyph d="M488 87C465 52 436 26 402 11 367-4 329-12 288-12 253-12 221-6 192 6 163 18 139 35 118 57 97 78 82 104 71 134 60 163 54 196 54 232 54 267 60 299 71 328 82 357 98 383 119 405 140 426 164 443 192 456 220 468 251 474 285 474 320 474 352 468 379 456 406 443 428 427 447 407 465 386 479 363 488 337 497 311 502 285 502 258l0-42-388 0C114 203 117 187 122 168 127 148 136 129 149 110 162 91 180 75 203 62 225 49 254 42 289 42 320 42 349 49 378 64 407 79 429 99 444 124M442 270C442 291 438 310 430 328 421 346 410 362 396 376 381 389 364 400 345 408 325 416 304 420 282 420 249 420 222 413 201 400 179 387 162 371 149 354 136 337 127 320 122 304 117 287 114 276 114 270M135 652C135 665 140 677 149 686 158 695 170 700 183 700 196 700 208 695 217 686 226 677 231 665 231 652 231 639 226 627 217 618 208 609 196 604 183 604 170 604 158 609 149 618 140 627 135 639 135 652M325 652C325 665 330 677 339 686 348 695 360 700 373 700 386 700 398 695 407 686 416 677 421 665 421 652 421 639 416 627 407 618 398 609 386 604 373 604 360 604 348 609 339 618 330 627 325 639 325 652z" horiz-adv-x="556" unicode="ë"/><glyph d="M90 462l60 0 0-462-60 0M178 564l-50 0-134 144 80 0z" horiz-adv-x="240" unicode="ì"/><glyph d="M90 462l60 0 0-462-60 0M166 708l80 0-134-144-50 0z" horiz-adv-x="240" unicode="í"/><glyph d="M90 462l60 0 0-462-60 0M85 708l70 0 108-144-65 0-81 108-81-108-59 0z" horiz-adv-x="240" unicode="î"/><glyph d="M90 462l60 0 0-462-60 0M-23 652C-23 665-18 677-9 686 0 695 12 700 25 700 38 700 50 695 59 686 68 677 73 665 73 652 73 639 68 627 59 618 50 609 38 604 25 604 12 604 0 609-9 618-18 627-23 639-23 652M167 652C167 665 172 677 181 686 190 695 202 700 215 700 228 700 240 695 249 686 258 677 263 665 263 652 263 639 258 627 249 618 240 609 228 604 215 604 202 604 190 609 181 618 172 627 167 639 167 652z" horiz-adv-x="240" unicode="ï"/><glyph d="M253 660C238 674 221 688 204 703 187 717 172 729 159 738l52 30C226 757 243 744 260 730 277 715 293 701 306 688l104 56 36-30-106-57C355 644 373 625 396 601 419 577 441 548 462 515 483 481 502 442 517 399 532 356 540 308 540 256 540 215 534 177 522 144 510 111 493 83 472 60 450 37 424 19 395 7 365-6 332-12 297-12 262-12 229-6 199 6 169 18 143 35 122 57 101 78 84 104 72 134 60 163 54 196 54 231 54 266 60 299 72 329 84 358 101 384 122 406 143 427 169 444 199 456 229 468 262 474 297 474 325 474 352 470 377 461 402 452 425 438 446 419l2 2C423 466 396 506 367 542 338 577 312 606 287 628l-107-57-31 33M114 231C114 205 118 181 127 158 135 135 147 115 163 98 179 81 198 67 221 57 244 47 269 42 297 42 325 42 350 47 373 57 396 67 415 81 431 98 447 115 459 135 468 158 476 181 480 205 480 231 480 257 476 282 468 305 459 328 447 348 431 365 415 382 396 395 373 405 350 415 325 420 297 420 269 420 244 415 221 405 198 395 179 382 163 365 147 348 135 328 127 305 118 282 114 257 114 231z" horiz-adv-x="594" unicode="ð"/><glyph d="M80 332C80 341 80 351 79 364 78 376 78 388 78 401 77 414 77 426 76 437 75 448 75 456 75 462l60 0C136 445 136 428 137 412 137 396 138 386 139 381l3 0C154 406 174 428 202 447 230 465 263 474 300 474 336 474 365 468 388 457 411 446 429 431 442 413 455 394 464 373 469 349 474 325 476 300 476 275l0-275-60 0 0 272C416 291 414 309 411 327 408 344 402 360 394 374 385 388 374 399 359 408 344 416 324 420 300 420 278 420 257 416 238 409 218 401 201 389 187 374 172 358 161 338 153 315 144 291 140 263 140 231l0-231-60 0M122 581C123 592 126 604 131 617 136 629 142 640 149 649 156 659 165 667 176 674 187 680 199 683 212 683 225 683 238 680 251 675 264 670 276 664 287 658 298 653 309 648 320 643 331 638 341 635 350 635 365 635 376 640 383 650 390 660 395 671 398 683l36 0C433 671 430 659 426 647 422 634 417 623 410 614 403 604 394 596 385 590 375 584 363 581 350 581 337 581 324 584 312 589 299 594 287 600 275 605 263 610 252 616 241 621 230 626 219 629 209 629 194 629 182 624 175 614 167 604 161 593 158 581z" horiz-adv-x="556" unicode="ñ"/><glyph d="M54 231C54 266 60 299 72 329 84 358 101 384 122 406 143 427 169 444 199 456 229 468 262 474 297 474 332 474 365 468 395 456 424 444 450 427 472 406 493 384 510 358 522 329 534 299 540 266 540 231 540 196 534 163 522 134 510 104 493 78 472 57 450 35 424 18 395 6 365-6 332-12 297-12 262-12 229-6 199 6 169 18 143 35 122 57 101 78 84 104 72 134 60 163 54 196 54 231M114 231C114 205 118 181 127 158 135 135 147 115 163 98 179 81 198 67 221 57 244 47 269 42 297 42 325 42 350 47 373 57 396 67 415 81 431 98 447 115 459 135 468 158 476 181 480 205 480 231 480 257 476 282 468 305 459 328 447 348 431 365 415 382 396 395 373 405 350 415 325 420 297 420 269 420 244 415 221 405 198 395 179 382 163 365 147 348 135 328 127 305 118 282 114 257 114 231M355 564l-50 0-134 144 80 0z" horiz-adv-x="594" unicode="ò"/><glyph d="M54 231C54 266 60 299 72 329 84 358 101 384 122 406 143 427 169 444 199 456 229 468 262 474 297 474 332 474 365 468 395 456 424 444 450 427 472 406 493 384 510 358 522 329 534 299 540 266 540 231 540 196 534 163 522 134 510 104 493 78 472 57 450 35 424 18 395 6 365-6 332-12 297-12 262-12 229-6 199 6 169 18 143 35 122 57 101 78 84 104 72 134 60 163 54 196 54 231M114 231C114 205 118 181 127 158 135 135 147 115 163 98 179 81 198 67 221 57 244 47 269 42 297 42 325 42 350 47 373 57 396 67 415 81 431 98 447 115 459 135 468 158 476 181 480 205 480 231 480 257 476 282 468 305 459 328 447 348 431 365 415 382 396 395 373 405 350 415 325 420 297 420 269 420 244 415 221 405 198 395 179 382 163 365 147 348 135 328 127 305 118 282 114 257 114 231M343 708l80 0-134-144-50 0z" horiz-adv-x="594" unicode="ó"/><glyph d="M54 231C54 266 60 299 72 329 84 358 101 384 122 406 143 427 169 444 199 456 229 468 262 474 297 474 332 474 365 468 395 456 424 444 450 427 472 406 493 384 510 358 522 329 534 299 540 266 540 231 540 196 534 163 522 134 510 104 493 78 472 57 450 35 424 18 395 6 365-6 332-12 297-12 262-12 229-6 199 6 169 18 143 35 122 57 101 78 84 104 72 134 60 163 54 196 54 231M114 231C114 205 118 181 127 158 135 135 147 115 163 98 179 81 198 67 221 57 244 47 269 42 297 42 325 42 350 47 373 57 396 67 415 81 431 98 447 115 459 135 468 158 476 181 480 205 480 231 480 257 476 282 468 305 459 328 447 348 431 365 415 382 396 395 373 405 350 415 325 420 297 420 269 420 244 415 221 405 198 395 179 382 163 365 147 348 135 328 127 305 118 282 114 257 114 231M262 708l70 0 108-144-65 0-81 108-81-108-59 0z" horiz-adv-x="594" unicode="ô"/><glyph d="M54 231C54 266 60 299 72 329 84 358 101 384 122 406 143 427 169 444 199 456 229 468 262 474 297 474 332 474 365 468 395 456 424 444 450 427 472 406 493 384 510 358 522 329 534 299 540 266 540 231 540 196 534 163 522 134 510 104 493 78 472 57 450 35 424 18 395 6 365-6 332-12 297-12 262-12 229-6 199 6 169 18 143 35 122 57 101 78 84 104 72 134 60 163 54 196 54 231M114 231C114 205 118 181 127 158 135 135 147 115 163 98 179 81 198 67 221 57 244 47 269 42 297 42 325 42 350 47 373 57 396 67 415 81 431 98 447 115 459 135 468 158 476 181 480 205 480 231 480 257 476 282 468 305 459 328 447 348 431 365 415 382 396 395 373 405 350 415 325 420 297 420 269 420 244 415 221 405 198 395 179 382 163 365 147 348 135 328 127 305 118 282 114 257 114 231M141 581C142 592 145 604 150 617 155 629 161 640 168 649 175 659 184 667 195 674 206 680 218 683 231 683 244 683 257 680 270 675 283 670 295 664 306 658 317 653 328 648 339 643 350 638 360 635 369 635 384 635 395 640 402 650 409 660 414 671 417 683l36 0C452 671 449 659 445 647 441 634 436 623 429 614 422 604 413 596 404 590 394 584 382 581 369 581 356 581 343 584 331 589 318 594 306 600 294 605 282 610 271 616 260 621 249 626 238 629 228 629 213 629 201 624 194 614 186 604 180 593 177 581z" horiz-adv-x="594" unicode="õ"/><glyph d="M54 231C54 266 60 299 72 329 84 358 101 384 122 406 143 427 169 444 199 456 229 468 262 474 297 474 332 474 365 468 395 456 424 444 450 427 472 406 493 384 510 358 522 329 534 299 540 266 540 231 540 196 534 163 522 134 510 104 493 78 472 57 450 35 424 18 395 6 365-6 332-12 297-12 262-12 229-6 199 6 169 18 143 35 122 57 101 78 84 104 72 134 60 163 54 196 54 231M114 231C114 205 118 181 127 158 135 135 147 115 163 98 179 81 198 67 221 57 244 47 269 42 297 42 325 42 350 47 373 57 396 67 415 81 431 98 447 115 459 135 468 158 476 181 480 205 480 231 480 257 476 282 468 305 459 328 447 348 431 365 415 382 396 395 373 405 350 415 325 420 297 420 269 420 244 415 221 405 198 395 179 382 163 365 147 348 135 328 127 305 118 282 114 257 114 231M154 652C154 665 159 677 168 686 177 695 189 700 202 700 215 700 227 695 236 686 245 677 250 665 250 652 250 639 245 627 236 618 227 609 215 604 202 604 189 604 177 609 168 618 159 627 154 639 154 652M344 652C344 665 349 677 358 686 367 695 379 700 392 700 405 700 417 695 426 686 435 677 440 665 440 652 440 639 435 627 426 618 417 609 405 604 392 604 379 604 367 609 358 618 349 627 344 639 344 652z" horiz-adv-x="594" unicode="ö"/><glyph d="M78 327l510 0 0-48-510 0M282 457C282 471 287 483 297 493 307 503 319 508 333 508 347 508 359 503 369 493 379 483 384 471 384 457 384 443 379 431 369 421 359 411 347 406 333 406 319 406 307 411 297 421 287 431 282 443 282 457M282 149C282 164 287 176 297 185 307 194 319 199 333 200 347 200 359 195 369 185 379 175 384 163 384 149 384 135 379 123 369 113 359 103 347 98 333 98 319 98 307 103 297 113 287 123 282 135 282 149z" horiz-adv-x="666" unicode="÷"/><glyph d="M109 73C72 116 54 168 54 231 54 266 60 299 72 329 84 358 101 384 122 406 143 427 169 444 199 456 229 468 262 474 297 474 328 474 357 469 384 460 410 451 433 438 454 421l69 70 32-29-71-71C502 370 516 347 526 320 535 293 540 263 540 231 540 196 534 163 522 134 510 104 493 78 472 57 450 35 424 18 395 6 365-6 332-12 297-12 265-12 236-7 209 2 182 11 159 25 139 42l-68-69-32 29M413 380C398 393 380 403 361 410 342 417 320 420 297 420 269 420 244 415 221 405 198 395 179 382 163 365 147 348 135 328 127 305 118 282 114 257 114 231 114 209 117 188 123 168 129 148 138 130 150 115M180 83C195 70 212 60 232 53 251 46 273 42 297 42 325 42 350 47 373 57 396 67 415 81 431 98 447 115 459 135 468 158 476 181 480 205 480 231 480 254 477 276 471 296 464 316 455 334 443 349z" horiz-adv-x="594" unicode="ø"/><glyph d="M471 130C471 121 471 111 472 99 473 86 473 74 474 61 474 48 474 37 475 26 476 15 476 6 476 0l-60 0C415 17 415 34 415 50 414 66 413 76 412 81l-3 0C397 56 377 34 349 16 321-3 288-12 251-12 215-12 186-6 163 5 140 16 122 31 109 50 96 68 87 89 82 113 77 137 75 162 75 187l0 275 60 0 0-272C135 171 137 153 140 136 143 118 149 102 158 88 166 74 178 63 193 55 208 46 227 42 251 42 273 42 294 46 314 54 333 61 350 73 365 89 379 104 390 124 399 148 407 171 411 199 411 231l0 231 60 0M336 564l-50 0-134 144 80 0z" horiz-adv-x="556" unicode="ù"/><glyph d="M471 130C471 121 471 111 472 99 473 86 473 74 474 61 474 48 474 37 475 26 476 15 476 6 476 0l-60 0C415 17 415 34 415 50 414 66 413 76 412 81l-3 0C397 56 377 34 349 16 321-3 288-12 251-12 215-12 186-6 163 5 140 16 122 31 109 50 96 68 87 89 82 113 77 137 75 162 75 187l0 275 60 0 0-272C135 171 137 153 140 136 143 118 149 102 158 88 166 74 178 63 193 55 208 46 227 42 251 42 273 42 294 46 314 54 333 61 350 73 365 89 379 104 390 124 399 148 407 171 411 199 411 231l0 231 60 0M324 708l80 0-134-144-50 0z" horiz-adv-x="556" unicode="ú"/><glyph d="M471 130C471 121 471 111 472 99 473 86 473 74 474 61 474 48 474 37 475 26 476 15 476 6 476 0l-60 0C415 17 415 34 415 50 414 66 413 76 412 81l-3 0C397 56 377 34 349 16 321-3 288-12 251-12 215-12 186-6 163 5 140 16 122 31 109 50 96 68 87 89 82 113 77 137 75 162 75 187l0 275 60 0 0-272C135 171 137 153 140 136 143 118 149 102 158 88 166 74 178 63 193 55 208 46 227 42 251 42 273 42 294 46 314 54 333 61 350 73 365 89 379 104 390 124 399 148 407 171 411 199 411 231l0 231 60 0M243 708l70 0 108-144-65 0-81 108-81-108-59 0z" horiz-adv-x="556" unicode="û"/><glyph d="M471 130C471 121 471 111 472 99 473 86 473 74 474 61 474 48 474 37 475 26 476 15 476 6 476 0l-60 0C415 17 415 34 415 50 414 66 413 76 412 81l-3 0C397 56 377 34 349 16 321-3 288-12 251-12 215-12 186-6 163 5 140 16 122 31 109 50 96 68 87 89 82 113 77 137 75 162 75 187l0 275 60 0 0-272C135 171 137 153 140 136 143 118 149 102 158 88 166 74 178 63 193 55 208 46 227 42 251 42 273 42 294 46 314 54 333 61 350 73 365 89 379 104 390 124 399 148 407 171 411 199 411 231l0 231 60 0M135 652C135 665 140 677 149 686 158 695 170 700 183 700 196 700 208 695 217 686 226 677 231 665 231 652 231 639 226 627 217 618 208 609 196 604 183 604 170 604 158 609 149 618 140 627 135 639 135 652M325 652C325 665 330 677 339 686 348 695 360 700 373 700 386 700 398 695 407 686 416 677 421 665 421 652 421 639 416 627 407 618 398 609 386 604 373 604 360 604 348 609 339 618 330 627 325 639 325 652z" horiz-adv-x="556" unicode="ü"/><glyph d="M210-143C199-173 183-197 163-214 143-231 116-240 83-240 73-240 63-239 53-237 43-236 33-234 24-231l6 56C39-178 48-180 57-182 66-185 75-186 84-186 95-186 104-184 113-179 121-174 128-168 134-161 140-154 145-145 150-136 154-127 158-118 161-109l42 107-188 464 67 0 153-389 149 389 64 0M278 708l80 0-134-144-50 0z" horiz-adv-x="463" unicode="ý"/><glyph d="M67 756l60 0 0-375 2 0C138 397 150 411 164 423 178 434 193 444 210 452 226 459 243 465 261 469 279 472 297 474 314 474 349 474 382 468 412 456 441 444 467 427 489 406 510 384 527 358 539 329 551 299 557 266 557 231 557 196 551 163 539 134 527 104 510 78 489 57 467 35 441 18 412 6 382-6 349-12 314-12 297-12 279-10 261-6 243-3 226 3 210 11 193 18 178 28 164 40 150 51 138 65 129 81l-2 0 0-309-60 0M121 231C121 205 126 181 136 158 146 135 160 115 177 98 194 81 215 67 238 57 261 47 287 42 314 42 342 42 367 47 390 57 413 67 432 81 448 98 464 115 476 135 485 158 493 181 497 205 497 231 497 257 493 282 485 305 476 328 464 348 448 365 432 382 413 395 390 405 367 415 342 420 314 420 287 420 261 415 238 405 215 395 194 382 177 365 160 348 146 328 136 305 126 282 121 257 121 231z" horiz-adv-x="611" unicode="þ"/><glyph d="M210-143C199-173 183-197 163-214 143-231 116-240 83-240 73-240 63-239 53-237 43-236 33-234 24-231l6 56C39-178 48-180 57-182 66-185 75-186 84-186 95-186 104-184 113-179 121-174 128-168 134-161 140-154 145-145 150-136 154-127 158-118 161-109l42 107-188 464 67 0 153-389 149 389 64 0M89 652C89 665 94 677 103 686 112 695 124 700 137 700 150 700 162 695 171 686 180 677 185 665 185 652 185 639 180 627 171 618 162 609 150 604 137 604 124 604 112 609 103 618 94 627 89 639 89 652M279 652C279 665 284 677 293 686 302 695 314 700 327 700 340 700 352 695 361 686 370 677 375 665 375 652 375 639 370 627 361 618 352 609 340 604 327 604 314 604 302 609 293 618 284 627 279 639 279 652z" horiz-adv-x="463" unicode="ÿ"/><glyph d="M314 708l68 0 298-708-74 0-77 188-375 0-80-188-69 0M345 636l-165-388 325 0M477 799l-264 0 0 48 264 0z" horiz-adv-x="685" unicode="Ā"/><glyph d="M439 194C439 171 439 151 440 133 440 115 440 98 441 83 442 68 443 53 444 40 445 27 446 13 448 0l-56 0C388 23 386 48 386 75l-2 0C367 45 345 23 320 9 294-5 261-12 222-12 202-12 182-9 163-4 144 1 126 9 111 20 96 31 83 45 74 62 64 79 59 100 59 125 59 160 68 188 86 209 104 230 126 245 153 256 179 266 207 273 237 276 266 279 292 280 315 280l70 0 0 28C385 348 373 377 348 394 323 411 292 420 255 420 202 420 155 403 114 368l-35 41C101 430 128 447 161 458 194 469 225 474 255 474 311 474 356 461 389 435 422 408 439 366 439 307M319 232C294 232 269 230 246 227 222 224 201 218 182 210 163 202 147 191 136 178 125 165 119 148 119 128 119 114 122 102 129 91 135 80 143 71 153 64 163 57 174 51 187 48 199 44 211 42 224 42 256 42 282 47 303 56 324 65 340 78 353 93 365 108 373 125 378 144 383 163 385 182 385 201l0 31M404 606l-264 0 0 48 264 0z" horiz-adv-x="519" unicode="ā"/><glyph d="M314 708l68 0 298-708-74 0-77 188-375 0-80-188-69 0M345 636l-165-388 325 0M262 881C266 854 277 835 296 822 314 809 336 803 362 803 392 803 415 809 432 820 448 831 459 851 466 881l42 0C503 841 488 810 462 788 435 766 402 755 362 755 322 755 289 766 263 788 236 810 222 841 220 881z" horiz-adv-x="685" unicode="Ă"/><glyph d="M439 194C439 171 439 151 440 133 440 115 440 98 441 83 442 68 443 53 444 40 445 27 446 13 448 0l-56 0C388 23 386 48 386 75l-2 0C367 45 345 23 320 9 294-5 261-12 222-12 202-12 182-9 163-4 144 1 126 9 111 20 96 31 83 45 74 62 64 79 59 100 59 125 59 160 68 188 86 209 104 230 126 245 153 256 179 266 207 273 237 276 266 279 292 280 315 280l70 0 0 28C385 348 373 377 348 394 323 411 292 420 255 420 202 420 155 403 114 368l-35 41C101 430 128 447 161 458 194 469 225 474 255 474 311 474 356 461 389 435 422 408 439 366 439 307M319 232C294 232 269 230 246 227 222 224 201 218 182 210 163 202 147 191 136 178 125 165 119 148 119 128 119 114 122 102 129 91 135 80 143 71 153 64 163 57 174 51 187 48 199 44 211 42 224 42 256 42 282 47 303 56 324 65 340 78 353 93 365 108 373 125 378 144 383 163 385 182 385 201l0 31M170 708C174 681 185 662 204 649 222 636 244 630 270 630 300 630 323 636 340 647 356 658 367 679 374 708l42 0C411 668 396 637 370 615 343 593 310 582 270 582 231 582 198 593 171 615 144 637 130 668 128 708z" horiz-adv-x="519" unicode="ă"/><glyph d="M695-183C684-192 672-200 659-206 645-213 629-216 610-216 583-216 561-209 544-194 527-179 518-159 518-134 518-120 521-107 526-94 531-81 538-69 547-58 555-47 564-37 575-27 586-17 596-8 606 0l-77 188-375 0-80-188-69 0 309 708 68 0 298-708-29 0C644-5 636-12 628-21 619-30 611-39 604-50 597-61 591-72 586-84 581-96 578-108 578-121 578-152 592-168 621-168 635-168 647-165 656-160 665-155 671-150 676-145M345 636l-165-388 325 0z" horiz-adv-x="685" unicode="Ą"/><glyph d="M481-183C470-192 458-200 445-206 431-213 415-216 396-216 369-216 347-209 330-194 313-179 304-159 304-134 304-120 307-107 312-94 317-81 324-69 333-58 341-47 350-37 361-27 372-17 382-8 392 0 388 23 386 48 386 75l-2 0C367 45 345 23 320 9 295-5 262-12 222-12 202-12 182-9 163-4 144 1 126 9 111 20 96 31 83 45 74 62 64 79 59 100 59 125 59 160 68 188 86 209 104 230 126 245 153 256 179 266 207 273 236 276 265 279 292 280 315 280l70 0 0 28C385 348 373 377 349 394 324 411 293 420 255 420 202 420 155 403 114 368l-35 41C101 430 128 447 161 458 194 469 225 474 255 474 311 474 356 461 389 435 422 408 439 366 439 307l0-113C439 171 439 151 440 133 440 115 440 98 441 83 441 68 442 53 443 40 444 27 446 13 448 0l-11 0C430-5 422-12 414-21 405-30 397-39 390-50 383-61 377-72 372-84 367-96 364-108 364-121 364-152 378-168 407-168 421-168 433-165 442-160 451-155 457-150 462-145M319 232C294 232 269 230 246 227 222 224 201 218 182 210 163 202 147 191 136 178 125 165 119 148 119 128 119 114 122 102 129 91 135 80 143 71 153 64 163 57 174 51 187 48 199 44 211 42 224 42 256 42 282 47 303 56 324 65 340 78 353 93 365 108 373 125 378 144 383 163 385 182 385 201l0 31z" horiz-adv-x="519" unicode="ą"/><glyph d="M680 111C646 65 607 32 562 12 517-8 469-18 417-18 363-18 314-9 269 10 224 28 185 54 153 87 121 120 96 159 78 205 60 250 51 300 51 354 51 408 60 458 78 503 96 548 121 588 153 621 185 654 224 679 269 698 314 717 363 726 417 726 465 726 510 718 552 701 593 684 630 655 661 615l-54-45C585 603 557 628 523 643 488 658 453 666 417 666 371 666 330 658 293 642 256 626 224 604 198 576 172 548 152 515 138 477 124 439 117 398 117 354 117 310 124 269 138 231 152 193 172 160 198 132 224 104 256 82 293 66 330 50 371 42 417 42 435 42 454 44 473 49 492 53 511 60 530 69 548 78 565 89 582 103 599 116 613 133 626 152M445 896l80 0-134-144-50 0z" horiz-adv-x="704" unicode="Ć"/><glyph d="M467 68C444 41 419 21 390 8 361-5 330-12 297-12 262-12 229-6 199 6 169 18 143 35 122 57 101 78 84 104 72 134 60 163 54 196 54 231 54 266 60 299 72 329 84 358 101 384 122 406 143 427 169 444 199 456 229 468 262 474 297 474 331 474 363 467 392 453 421 439 446 419 469 394l-48-36C404 377 385 393 364 404 343 415 321 420 297 420 269 420 244 415 221 405 198 395 179 382 163 365 147 348 135 328 127 305 118 282 114 257 114 231 114 205 118 181 127 158 135 135 147 115 163 98 179 81 198 67 221 57 244 47 269 42 297 42 322 42 346 48 367 60 388 71 406 87 421 106M341 708l80 0-134-144-50 0z" horiz-adv-x="481" unicode="ć"/><glyph d="M680 111C646 65 607 32 562 12 517-8 469-18 417-18 363-18 314-9 269 10 224 28 185 54 153 87 121 120 96 159 78 205 60 250 51 300 51 354 51 408 60 458 78 503 96 548 121 588 153 621 185 654 224 679 269 698 314 717 363 726 417 726 465 726 510 718 552 701 593 684 630 655 661 615l-54-45C585 603 557 628 523 643 488 658 453 666 417 666 371 666 330 658 293 642 256 626 224 604 198 576 172 548 152 515 138 477 124 439 117 398 117 354 117 310 124 269 138 231 152 193 172 160 198 132 224 104 256 82 293 66 330 50 371 42 417 42 435 42 454 44 473 49 492 53 511 60 530 69 548 78 565 89 582 103 599 116 613 133 626 152M382 896l70 0 108-144-65 0-81 108-81-108-59 0z" horiz-adv-x="704" unicode="Ĉ"/><glyph d="M467 68C444 41 419 21 390 8 361-5 330-12 297-12 262-12 229-6 199 6 169 18 143 35 122 57 101 78 84 104 72 134 60 163 54 196 54 231 54 266 60 299 72 329 84 358 101 384 122 406 143 427 169 444 199 456 229 468 262 474 297 474 331 474 363 467 392 453 421 439 446 419 469 394l-48-36C404 377 385 393 364 404 343 415 321 420 297 420 269 420 244 415 221 405 198 395 179 382 163 365 147 348 135 328 127 305 118 282 114 257 114 231 114 205 118 181 127 158 135 135 147 115 163 98 179 81 198 67 221 57 244 47 269 42 297 42 322 42 346 48 367 60 388 71 406 87 421 106M259 708l70 0 108-144-65 0-81 108-81-108-59 0z" horiz-adv-x="481" unicode="ĉ"/><glyph d="M680 111C646 65 607 32 562 12 517-8 469-18 417-18 363-18 314-9 269 10 224 28 185 54 153 87 121 120 96 159 78 205 60 250 51 300 51 354 51 408 60 458 78 503 96 548 121 588 153 621 185 654 224 679 269 698 314 717 363 726 417 726 465 726 510 718 552 701 593 684 630 655 661 615l-54-45C585 603 557 628 523 643 488 658 453 666 417 666 371 666 330 658 293 642 256 626 224 604 198 576 172 548 152 515 138 477 124 439 117 398 117 354 117 310 124 269 138 231 152 193 172 160 198 132 224 104 256 82 293 66 330 50 371 42 417 42 435 42 454 44 473 49 492 53 511 60 530 69 548 78 565 89 582 103 599 116 613 133 626 152M372 840C372 853 377 865 386 874 395 883 407 888 420 888 433 888 445 883 454 874 463 865 468 853 468 840 468 827 463 815 454 806 445 797 433 792 420 792 407 792 395 797 386 806 377 815 372 827 372 840z" horiz-adv-x="704" unicode="Ċ"/><glyph d="M467 68C444 41 419 21 390 8 361-5 330-12 297-12 262-12 229-6 199 6 169 18 143 35 122 57 101 78 84 104 72 134 60 163 54 196 54 231 54 266 60 299 72 329 84 358 101 384 122 406 143 427 169 444 199 456 229 468 262 474 297 474 331 474 363 467 392 453 421 439 446 419 469 394l-48-36C404 377 385 393 364 404 343 415 321 420 297 420 269 420 244 415 221 405 198 395 179 382 163 365 147 348 135 328 127 305 118 282 114 257 114 231 114 205 118 181 127 158 135 135 147 115 163 98 179 81 198 67 221 57 244 47 269 42 297 42 322 42 346 48 367 60 388 71 406 87 421 106M249 652C249 665 254 677 263 686 272 695 284 700 297 700 310 700 322 695 331 686 340 677 345 665 345 652 345 639 340 627 331 618 322 609 310 604 297 604 284 604 272 609 263 618 254 627 249 639 249 652z" horiz-adv-x="481" unicode="ċ"/><glyph d="M680 111C646 65 607 32 562 12 517-8 469-18 417-18 363-18 314-9 269 10 224 28 185 54 153 87 121 120 96 159 78 205 60 250 51 300 51 354 51 408 60 458 78 503 96 548 121 588 153 621 185 654 224 679 269 698 314 717 363 726 417 726 465 726 510 718 552 701 593 684 630 655 661 615l-54-45C585 603 557 628 523 643 488 658 453 666 417 666 371 666 330 658 293 642 256 626 224 604 198 576 172 548 152 515 138 477 124 439 117 398 117 354 117 310 124 269 138 231 152 193 172 160 198 132 224 104 256 82 293 66 330 50 371 42 417 42 435 42 454 44 473 49 492 53 511 60 530 69 548 78 565 89 582 103 599 116 613 133 626 152M450 752l-70 0-109 144 62 0 83-114 86 114 54 0z" horiz-adv-x="704" unicode="Č"/><glyph d="M467 68C444 41 419 21 390 8 361-5 330-12 297-12 262-12 229-6 199 6 169 18 143 35 122 57 101 78 84 104 72 134 60 163 54 196 54 231 54 266 60 299 72 329 84 358 101 384 122 406 143 427 169 444 199 456 229 468 262 474 297 474 331 474 363 467 392 453 421 439 446 419 469 394l-48-36C404 377 385 393 364 404 343 415 321 420 297 420 269 420 244 415 221 405 198 395 179 382 163 365 147 348 135 328 127 305 118 282 114 257 114 231 114 205 118 181 127 158 135 135 147 115 163 98 179 81 198 67 221 57 244 47 269 42 297 42 322 42 346 48 367 60 388 71 406 87 421 106M327 564l-70 0-109 144 62 0 83-114 86 114 54 0z" horiz-adv-x="481" unicode="č"/><glyph d="M88 708l219 0C368 708 420 701 463 686 506 671 541 651 570 628 598 605 620 579 637 551 653 522 665 495 673 469 680 443 685 420 687 399 689 378 690 363 690 354 690 345 689 331 687 310 685 289 680 265 673 239 665 213 653 186 637 158 620 129 598 103 570 80 541 57 506 38 463 23 420 8 368 0 307 0l-219 0M154 60l136 0C337 60 380 66 421 78 462 89 497 107 527 131 557 155 581 186 598 223 615 260 624 303 624 354 624 405 615 449 598 486 581 523 557 553 527 577 497 601 462 619 421 631 380 642 337 648 290 648l-136 0M360 752l-70 0-109 144 62 0 83-114 86 114 54 0z" horiz-adv-x="741" unicode="Ď"/><glyph d="M484 81l-2 0C473 65 461 51 447 40 433 28 418 18 402 11 385 3 368-3 350-6 332-10 314-12 297-12 262-12 229-6 199 6 169 18 143 35 122 57 101 78 84 104 72 134 60 163 54 196 54 231 54 266 60 299 72 329 84 358 101 384 122 406 143 427 169 444 199 456 229 468 262 474 297 474 314 474 332 472 350 469 368 465 385 459 402 452 418 444 433 434 447 423 461 411 473 397 482 381l2 0 0 375 60 0 0-756-60 0M490 231C490 257 485 282 475 305 465 328 451 348 434 365 417 382 396 395 373 405 350 415 324 420 297 420 269 420 244 415 221 405 198 395 179 382 163 365 147 348 135 328 127 305 118 282 114 257 114 231 114 205 118 181 127 158 135 135 147 115 163 98 179 81 198 67 221 57 244 47 269 42 297 42 324 42 350 47 373 57 396 67 417 81 434 98 451 115 465 135 475 158 485 181 490 205 490 231M668 708l65 0-63-185-53 0z" horiz-adv-x="611" unicode="ď"/><glyph d="M154 396l258 0 0-54-258 0 0-282 136 0C337 60 380 66 421 78 462 89 497 107 527 131 557 155 581 186 598 223 615 260 624 303 624 354 624 405 615 449 598 486 581 523 557 553 527 577 497 601 462 619 421 631 380 642 337 648 290 648l-136 0M88 342l-78 0 0 54 78 0 0 312 219 0C368 708 420 701 463 686 506 671 541 651 570 628 598 605 620 579 637 551 653 522 665 495 673 469 680 443 685 420 687 399 689 378 690 363 690 354 690 345 689 331 687 310 685 289 680 265 673 239 665 213 653 186 637 158 620 129 598 103 570 80 541 57 506 38 463 23 420 8 368 0 307 0l-219 0z" horiz-adv-x="741" unicode="Đ"/><glyph d="M484 81l-2 0C473 65 461 51 447 40 433 28 418 18 402 11 385 3 368-3 350-6 332-10 314-12 297-12 262-12 229-6 199 6 169 18 143 35 122 57 101 78 84 104 72 134 60 163 54 196 54 231 54 266 60 299 72 329 84 358 101 384 122 406 143 427 169 444 199 456 229 468 262 474 297 474 314 474 332 472 350 469 368 465 385 459 402 452 418 444 433 434 447 423 461 411 473 397 482 381l2 0 0 200-162 0 0 53 162 0 0 122 60 0 0-122 72 0 0-53-72 0 0-581-60 0M490 231C490 257 485 282 475 305 465 328 451 348 434 365 417 382 396 395 373 405 349 415 324 420 297 420 269 420 244 415 221 405 198 395 179 382 163 365 147 348 135 328 127 305 118 282 114 257 114 231 114 205 118 181 127 158 135 135 147 115 163 98 179 81 198 67 221 57 244 47 269 42 297 42 324 42 349 47 373 57 396 67 417 81 434 98 451 115 465 135 475 158 485 181 490 205 490 231z" horiz-adv-x="611" unicode="đ"/><glyph d="M97 708l433 0 0-60-367 0 0-252 344 0 0-60-344 0 0-276 383 0 0-60-449 0M453 799l-264 0 0 48 264 0z" horiz-adv-x="593" unicode="Ē"/><glyph d="M488 87C465 52 436 26 402 11 367-4 329-12 288-12 253-12 221-6 192 6 163 18 139 35 118 57 97 78 82 104 71 134 60 163 54 196 54 232 54 267 60 299 71 328 82 357 98 383 119 405 140 426 164 443 192 456 220 468 251 474 285 474 320 474 352 468 379 456 406 443 428 427 447 407 465 386 479 363 488 337 497 311 502 285 502 258l0-42-388 0C114 203 117 187 122 168 127 148 136 129 149 110 162 91 180 75 203 62 225 49 254 42 289 42 320 42 349 49 378 64 407 79 429 99 444 124M442 270C442 291 438 310 430 328 421 346 410 362 396 376 381 389 364 400 345 408 325 416 304 420 282 420 249 420 222 413 201 400 179 387 162 371 149 354 136 337 127 320 122 304 117 287 114 276 114 270M426 606l-264 0 0 48 264 0z" horiz-adv-x="556" unicode="ē"/><glyph d="M97 708l433 0 0-60-367 0 0-252 344 0 0-60-344 0 0-276 383 0 0-60-449 0M219 881C223 854 234 835 253 822 271 809 293 803 319 803 349 803 372 809 389 820 405 831 416 851 423 881l42 0C460 841 445 810 419 788 392 766 359 755 319 755 279 755 246 766 220 788 193 810 179 841 177 881z" horiz-adv-x="593" unicode="Ĕ"/><glyph d="M488 87C465 52 436 26 402 11 367-4 329-12 288-12 253-12 221-6 192 6 163 18 139 35 118 57 97 78 82 104 71 134 60 163 54 196 54 232 54 267 60 299 71 328 82 357 98 383 119 405 140 426 164 443 192 456 220 468 251 474 285 474 320 474 352 468 379 456 406 443 428 427 447 407 465 386 479 363 488 337 497 311 502 285 502 258l0-42-388 0C114 203 117 187 122 168 127 148 136 129 149 110 162 91 180 75 203 62 225 49 254 42 289 42 320 42 349 49 378 64 407 79 429 99 444 124M442 270C442 291 438 310 430 328 421 346 410 362 396 376 381 389 364 400 345 408 325 416 304 420 282 420 249 420 222 413 201 400 179 387 162 371 149 354 136 337 127 320 122 304 117 287 114 276 114 270M192 708C196 681 207 662 226 649 244 636 266 630 292 630 322 630 345 636 362 647 378 658 389 679 396 708l42 0C433 668 418 637 392 615 365 593 332 582 292 582 253 582 220 593 193 615 166 637 152 668 150 708z" horiz-adv-x="556" unicode="ĕ"/><glyph d="M97 708l433 0 0-60-367 0 0-252 344 0 0-60-344 0 0-276 383 0 0-60-449 0M276 840C276 853 281 865 290 874 299 883 311 888 324 888 337 888 349 883 358 874 367 865 372 853 372 840 372 827 367 815 358 806 349 797 337 792 324 792 311 792 299 797 290 806 281 815 276 827 276 840z" horiz-adv-x="593" unicode="Ė"/><glyph d="M488 87C465 52 436 26 402 11 367-4 329-12 288-12 253-12 221-6 192 6 163 18 139 35 118 57 97 78 82 104 71 134 60 163 54 196 54 232 54 267 60 299 71 328 82 357 98 383 119 405 140 426 164 443 192 456 220 468 251 474 285 474 320 474 352 468 379 456 406 443 428 427 447 407 465 386 479 363 488 337 497 311 502 285 502 258l0-42-388 0C114 203 117 187 122 168 127 148 136 129 149 110 162 91 180 75 203 62 225 49 254 42 289 42 320 42 349 49 378 64 407 79 429 99 444 124M442 270C442 291 438 310 430 328 421 346 410 362 396 376 381 389 364 400 345 408 325 416 304 420 282 420 249 420 222 413 201 400 179 387 162 371 149 354 136 337 127 320 122 304 117 287 114 276 114 270M249 652C249 665 254 677 263 686 272 695 284 700 297 700 310 700 322 695 331 686 340 677 345 665 345 652 345 639 340 627 331 618 322 609 310 604 297 604 284 604 272 609 263 618 254 627 249 639 249 652z" horiz-adv-x="556" unicode="ė"/><glyph d="M97 708l433 0 0-60-367 0 0-252 344 0 0-60-344 0 0-276 383 0 0-60-52 0C487-5 479-12 471-21 462-30 454-39 447-50 440-61 434-72 429-84 424-96 421-108 421-121 421-152 435-168 464-168 478-168 490-165 499-160 508-155 514-150 519-145l19-38C527-192 515-200 502-206 488-213 472-216 453-216 426-216 404-209 387-194 370-179 361-159 361-134 361-120 364-107 369-94 374-81 381-69 390-58 398-47 407-37 418-27 429-17 439-8 449 0l-352 0z" horiz-adv-x="593" unicode="Ę"/><glyph d="M388-183C377-192 365-200 352-206 338-213 322-216 303-216 276-216 254-209 237-194 220-179 211-159 211-134 211-109 219-87 234-66 249-45 265-27 284-12 249-11 218-5 190 8 161 20 137 37 117 58 97 79 82 105 71 135 60 164 54 197 54 232 54 267 60 299 71 328 82 357 98 383 119 405 140 426 164 443 192 456 220 468 251 474 285 474 320 474 352 468 379 456 406 443 428 427 447 407 465 386 479 363 488 337 497 311 502 285 502 258l0-42-388 0C114 203 117 187 122 168 127 148 136 129 149 110 162 91 180 75 203 62 225 49 254 42 289 42 304 42 320 44 335 48 350 51 364 57 378 64 391 71 404 79 415 90 426 100 436 111 444 124l44-37C469 58 446 36 420 21 394 6 365-4 333-9 319-21 305-37 292-57 278-77 271-98 271-121 271-152 285-168 314-168 328-168 340-165 349-160 358-155 364-150 369-145M442 270C442 291 438 310 430 328 421 346 410 362 396 376 381 389 364 400 345 408 325 416 304 420 282 420 249 420 222 413 201 400 179 387 162 371 149 354 136 337 127 320 122 304 117 287 114 276 114 270z" horiz-adv-x="556" unicode="ę"/><glyph d="M97 708l433 0 0-60-367 0 0-252 344 0 0-60-344 0 0-276 383 0 0-60-449 0M354 752l-70 0-109 144 62 0 83-114 86 114 54 0z" horiz-adv-x="593" unicode="Ě"/><glyph d="M488 87C465 52 436 26 402 11 367-4 329-12 288-12 253-12 221-6 192 6 163 18 139 35 118 57 97 78 82 104 71 134 60 163 54 196 54 232 54 267 60 299 71 328 82 357 98 383 119 405 140 426 164 443 192 456 220 468 251 474 285 474 320 474 352 468 379 456 406 443 428 427 447 407 465 386 479 363 488 337 497 311 502 285 502 258l0-42-388 0C114 203 117 187 122 168 127 148 136 129 149 110 162 91 180 75 203 62 225 49 254 42 289 42 320 42 349 49 378 64 407 79 429 99 444 124M442 270C442 291 438 310 430 328 421 346 410 362 396 376 381 389 364 400 345 408 325 416 304 420 282 420 249 420 222 413 201 400 179 387 162 371 149 354 136 337 127 320 122 304 117 287 114 276 114 270M327 564l-70 0-109 144 62 0 83-114 86 114 54 0z" horiz-adv-x="556" unicode="ě"/><glyph d="M681 46C640 23 597 6 553-3 508-13 463-18 417-18 363-18 314-9 269 10 224 28 185 54 153 87 121 120 96 159 78 205 60 250 51 300 51 354 51 408 60 458 78 503 96 548 121 588 153 621 185 654 224 679 269 698 314 717 363 726 417 726 522 726 607 693 672 628l-48-50C613 591 600 603 585 614 569 625 552 634 534 642 515 649 496 655 476 660 456 664 436 666 417 666 371 666 330 658 293 642 256 626 224 604 198 576 172 548 152 515 138 477 124 439 117 398 117 354 117 310 124 269 138 231 152 193 172 160 198 132 224 104 256 82 293 66 330 50 371 42 417 42 455 42 491 45 524 51 557 57 588 68 615 84l0 238-170 0 0 60 236 0M380 896l70 0 108-144-65 0-81 108-81-108-59 0z" horiz-adv-x="778" unicode="Ĝ"/><glyph d="M544 30C544-27 536-74 519-109 502-144 482-172 457-191 432-210 405-223 376-230 347-237 321-240 298-240 275-240 252-238 230-233 207-229 186-223 166-214 146-206 128-196 112-184 95-172 81-158 69-143l47 44C137-129 164-151 196-165 228-179 262-186 298-186 329-186 355-182 376-174 397-166 414-155 428-142 441-129 452-115 460-99 467-84 473-68 477-52 480-37 482-22 483-8 484 6 484 17 484 26l0 64-2 0C465 62 441 40 412 24 382 8 347 0 307 0 273 0 241 6 211 19 181 31 155 48 133 70 110 91 93 116 80 145 67 174 60 204 60 237 60 270 67 300 80 329 93 358 110 383 133 404 155 425 181 442 211 455 241 468 273 474 307 474 347 474 382 466 412 450 441 434 465 412 482 384l2 0 0 78 60 0M486 237C486 262 481 286 472 309 462 331 449 350 433 367 416 383 397 396 375 406 352 415 328 420 303 420 278 420 254 415 232 406 209 396 190 383 174 367 157 350 144 331 135 309 125 286 120 262 120 237 120 212 125 188 135 166 144 143 157 124 174 108 190 91 209 78 232 69 254 59 278 54 303 54 328 54 352 59 375 69 397 78 416 91 433 108 449 124 462 143 472 166 481 188 486 212 486 237M294 708l70 0 108-144-65 0-81 108-81-108-59 0z" horiz-adv-x="611" unicode="ĝ"/><glyph d="M681 46C640 23 597 6 553-3 508-13 463-18 417-18 363-18 314-9 269 10 224 28 185 54 153 87 121 120 96 159 78 205 60 250 51 300 51 354 51 408 60 458 78 503 96 548 121 588 153 621 185 654 224 679 269 698 314 717 363 726 417 726 522 726 607 693 672 628l-48-50C613 591 600 603 585 614 569 625 552 634 534 642 515 649 496 655 476 660 456 664 436 666 417 666 371 666 330 658 293 642 256 626 224 604 198 576 172 548 152 515 138 477 124 439 117 398 117 354 117 310 124 269 138 231 152 193 172 160 198 132 224 104 256 82 293 66 330 50 371 42 417 42 455 42 491 45 524 51 557 57 588 68 615 84l0 238-170 0 0 60 236 0M313 881C317 854 328 835 347 822 365 809 387 803 413 803 443 803 466 809 483 820 499 831 510 851 517 881l42 0C554 841 539 810 513 788 486 766 453 755 413 755 373 755 340 766 314 788 287 810 273 841 271 881z" horiz-adv-x="778" unicode="Ğ"/><glyph d="M544 30C544-27 536-74 519-109 502-144 482-172 457-191 432-210 405-223 376-230 347-237 321-240 298-240 275-240 252-238 230-233 207-229 186-223 166-214 146-206 128-196 112-184 95-172 81-158 69-143l47 44C137-129 164-151 196-165 228-179 262-186 298-186 329-186 355-182 376-174 397-166 414-155 428-142 441-129 452-115 460-99 467-84 473-68 477-52 480-37 482-22 483-8 484 6 484 17 484 26l0 64-2 0C465 62 441 40 412 24 382 8 347 0 307 0 273 0 241 6 211 19 181 31 155 48 133 70 110 91 93 116 80 145 67 174 60 204 60 237 60 270 67 300 80 329 93 358 110 383 133 404 155 425 181 442 211 455 241 468 273 474 307 474 347 474 382 466 412 450 441 434 465 412 482 384l2 0 0 78 60 0M486 237C486 262 481 286 472 309 462 331 449 350 433 367 416 383 397 396 375 406 352 415 328 420 303 420 278 420 254 415 232 406 209 396 190 383 174 367 157 350 144 331 135 309 125 286 120 262 120 237 120 212 125 188 135 166 144 143 157 124 174 108 190 91 209 78 232 69 254 59 278 54 303 54 328 54 352 59 375 69 397 78 416 91 433 108 449 124 462 143 472 166 481 188 486 212 486 237M227 708C231 681 242 662 261 649 279 636 301 630 327 630 357 630 380 636 397 647 413 658 424 679 431 708l42 0C468 668 453 637 427 615 400 593 367 582 327 582 288 582 255 593 228 615 201 637 187 668 185 708z" horiz-adv-x="611" unicode="ğ"/><glyph d="M681 46C640 23 597 6 553-3 508-13 463-18 417-18 363-18 314-9 269 10 224 28 185 54 153 87 121 120 96 159 78 205 60 250 51 300 51 354 51 408 60 458 78 503 96 548 121 588 153 621 185 654 224 679 269 698 314 717 363 726 417 726 522 726 607 693 672 628l-48-50C613 591 600 603 585 614 569 625 552 634 534 642 515 649 496 655 476 660 456 664 436 666 417 666 371 666 330 658 293 642 256 626 224 604 198 576 172 548 152 515 138 477 124 439 117 398 117 354 117 310 124 269 138 231 152 193 172 160 198 132 224 104 256 82 293 66 330 50 371 42 417 42 455 42 491 45 524 51 557 57 588 68 615 84l0 238-170 0 0 60 236 0M370 840C370 853 375 865 384 874 393 883 405 888 418 888 431 888 443 883 452 874 461 865 466 853 466 840 466 827 461 815 452 806 443 797 431 792 418 792 405 792 393 797 384 806 375 815 370 827 370 840z" horiz-adv-x="778" unicode="Ġ"/><glyph d="M544 30C544-27 536-74 519-109 502-144 482-172 457-191 432-210 405-223 376-230 347-237 321-240 298-240 275-240 252-238 230-233 207-229 186-223 166-214 146-206 128-196 112-184 95-172 81-158 69-143l47 44C137-129 164-151 196-165 228-179 262-186 298-186 329-186 355-182 376-174 397-166 414-155 428-142 441-129 452-115 460-99 467-84 473-68 477-52 480-37 482-22 483-8 484 6 484 17 484 26l0 64-2 0C465 62 441 40 412 24 382 8 347 0 307 0 273 0 241 6 211 19 181 31 155 48 133 70 110 91 93 116 80 145 67 174 60 204 60 237 60 270 67 300 80 329 93 358 110 383 133 404 155 425 181 442 211 455 241 468 273 474 307 474 347 474 382 466 412 450 441 434 465 412 482 384l2 0 0 78 60 0M486 237C486 262 481 286 472 309 462 331 449 350 433 367 416 383 397 396 375 406 352 415 328 420 303 420 278 420 254 415 232 406 209 396 190 383 174 367 157 350 144 331 135 309 125 286 120 262 120 237 120 212 125 188 135 166 144 143 157 124 174 108 190 91 209 78 232 69 254 59 278 54 303 54 328 54 352 59 375 69 397 78 416 91 433 108 449 124 462 143 472 166 481 188 486 212 486 237M284 652C284 665 289 677 298 686 307 695 319 700 332 700 345 700 357 695 366 686 375 677 380 665 380 652 380 639 375 627 366 618 357 609 345 604 332 604 319 604 307 609 298 618 289 627 284 639 284 652z" horiz-adv-x="611" unicode="ġ"/><glyph d="M681 46C640 23 597 6 553-3 508-13 463-18 417-18 363-18 314-9 269 10 224 28 185 54 153 87 121 120 96 159 78 205 60 250 51 300 51 354 51 408 60 458 78 503 96 548 121 588 153 621 185 654 224 679 269 698 314 717 363 726 417 726 522 726 607 693 672 628l-48-50C613 591 600 603 585 614 569 625 552 634 534 642 515 649 496 655 476 660 456 664 436 666 417 666 371 666 330 658 293 642 256 626 224 604 198 576 172 548 152 515 138 477 124 439 117 398 117 354 117 310 124 269 138 231 152 193 172 160 198 132 224 104 256 82 293 66 330 50 371 42 417 42 455 42 491 45 524 51 557 57 588 68 615 84l0 238-170 0 0 60 236 0M387-66l65 0-62-165-53 0z" horiz-adv-x="778" unicode="Ģ"/><glyph d="M544 30C544-27 536-74 519-109 502-144 482-172 457-191 432-210 405-223 376-230 347-237 321-240 298-240 275-240 252-238 230-233 207-229 186-223 166-214 146-206 128-196 112-184 95-172 81-158 69-143l47 44C137-129 164-151 196-165 228-179 262-186 298-186 329-186 355-182 376-174 397-166 414-155 428-142 441-129 452-115 460-99 467-84 473-68 477-52 480-37 482-22 483-8 484 6 484 17 484 26l0 64-2 0C465 62 441 40 412 24 382 8 347 0 307 0 273 0 241 6 211 19 181 31 155 48 133 70 110 91 93 116 80 145 67 174 60 204 60 237 60 270 67 300 80 329 93 358 110 383 133 404 155 425 181 442 211 455 241 468 273 474 307 474 347 474 382 466 412 450 441 434 465 412 482 384l2 0 0 78 60 0M486 237C486 262 481 286 472 309 462 331 449 350 433 367 416 383 397 396 375 406 352 415 328 420 303 420 278 420 254 415 232 406 209 396 190 383 174 367 157 350 144 331 135 309 125 286 120 262 120 237 120 212 125 188 135 166 144 143 157 124 174 108 190 91 209 78 232 69 254 59 278 54 303 54 328 54 352 59 375 69 397 78 416 91 433 108 449 124 462 143 472 166 481 188 486 212 486 237M350 594l-65 0 63 165 53 0z" horiz-adv-x="611" unicode="ģ"/><glyph d="M97 708l66 0 0-312 396 0 0 312 66 0 0-708-66 0 0 336-396 0 0-336-66 0M325 896l70 0 108-144-65 0-81 108-81-108-59 0z" horiz-adv-x="722" unicode="Ĥ"/><glyph d="M80 756l60 0 0-375 2 0C154 406 174 428 202 447 230 465 263 474 300 474 336 474 365 468 388 457 411 446 429 431 442 413 455 394 464 373 469 349 474 325 476 300 476 275l0-275-60 0 0 272C416 291 414 309 411 327 408 344 402 360 394 374 385 388 374 399 359 408 344 416 324 420 300 420 278 420 257 416 238 409 218 401 201 389 187 374 172 358 161 338 153 315 144 291 140 263 140 231l0-231-60 0M216 936l70 0 108-144-65 0-81 108-81-108-59 0z" horiz-adv-x="556" unicode="ĥ"/><glyph d="M97 708l66 0 0-111 396 0 0 111 66 0 0-708-66 0 0 336-396 0 0-336-66 0M559 396l0 153-396 0 0-153z" horiz-adv-x="722" unicode="Ħ"/><glyph d="M80 581l-72 0 0 53 72 0 0 122 60 0 0-122 162 0 0-53-162 0 0-200 2 0C154 406 174 428 202 447 230 465 263 474 300 474 336 474 365 468 388 457 411 446 429 431 442 413 455 394 464 373 469 349 474 325 476 300 476 275l0-275-60 0 0 272C416 291 414 309 411 327 408 344 402 360 394 374 385 388 374 399 359 408 344 416 324 420 300 420 278 420 257 416 238 409 218 401 201 389 187 374 172 358 161 338 153 315 144 291 140 263 140 231l0-231-60 0z" horiz-adv-x="556" unicode="ħ"/><glyph d="M97 708l66 0 0-708-66 0M-25 769C-24 780-21 792-16 805-11 817-5 828 2 837 9 847 18 855 29 862 40 868 52 871 65 871 78 871 91 868 104 863 117 858 129 852 140 846 151 841 162 836 173 831 184 826 194 823 203 823 218 823 229 828 236 838 243 848 248 859 251 871l36 0C286 859 283 847 279 835 275 822 270 811 263 802 256 792 247 784 237 778 227 772 216 769 203 769 190 769 177 772 165 777 152 782 140 788 128 793 116 798 105 804 94 809 83 814 72 817 62 817 47 817 35 812 28 802 20 792 14 781 11 769z" horiz-adv-x="260" unicode="Ĩ"/><glyph d="M90 462l60 0 0-462-60 0M-34 581C-33 592-30 604-25 617-20 629-14 640-7 649 0 659 9 667 20 674 31 680 43 683 56 683 69 683 82 680 95 675 108 670 120 664 131 658 142 653 153 648 164 643 175 638 185 635 194 635 209 635 220 640 227 650 234 660 239 671 242 683l36 0C277 671 274 659 270 647 266 634 261 623 254 614 247 604 238 596 229 590 219 584 207 581 194 581 181 581 168 584 156 589 143 594 131 600 119 605 107 610 96 616 85 621 74 626 63 629 53 629 38 629 26 624 19 614 11 604 5 593 2 581z" horiz-adv-x="240" unicode="ĩ"/><glyph d="M97 708l66 0 0-708-66 0M261 799l-264 0 0 48 264 0z" horiz-adv-x="260" unicode="Ī"/><glyph d="M90 462l60 0 0-462-60 0M253 606l-264 0 0 48 264 0z" horiz-adv-x="240" unicode="ī"/><glyph d="M97 708l66 0 0-708-13 0C143-5 135-12 127-21 118-30 110-39 103-50 96-61 90-72 85-84 80-96 77-108 77-121 77-152 91-168 120-168 134-168 146-165 155-160 164-155 170-150 175-145l19-38C183-192 171-200 158-206 144-213 128-216 109-216 82-216 60-209 43-194 26-179 17-159 17-134 17-120 20-107 25-94 30-81 37-69 46-58 54-47 63-37 74-27 85-17 95-8 105 0l-8 0z" horiz-adv-x="260" unicode="Į"/><glyph d="M90 462l60 0 0-462-10 0C133-5 125-12 117-21 108-30 100-39 93-50 86-61 80-72 75-84 70-96 67-108 67-121 67-152 81-168 110-168 124-168 136-165 145-160 154-155 160-150 165-145l19-38C173-192 161-200 148-206 134-213 118-216 99-216 72-216 50-209 33-194 16-179 7-159 7-134 7-120 10-107 15-94 20-81 27-69 36-58 44-47 53-37 64-27 75-17 85-8 95 0l-5 0M75 645C75 658 79 668 88 677 97 686 107 690 120 690 133 690 143 686 152 677 161 668 165 658 165 645 165 632 161 622 152 613 143 604 133 600 120 600 107 600 97 604 88 613 79 622 75 632 75 645z" horiz-adv-x="240" unicode="į"/><glyph d="M97 708l66 0 0-708-66 0M86 840C86 853 91 865 100 874 109 883 121 888 134 888 147 888 159 883 168 874 177 865 182 853 182 840 182 827 177 815 168 806 159 797 147 792 134 792 121 792 109 797 100 806 91 815 86 827 86 840z" horiz-adv-x="260" unicode="İ"/><glyph d="M90 462l60 0 0-462-60 0z" horiz-adv-x="240" unicode="ı"/><glyph d="M97 708l66 0 0-708-66 0M611 208C611 187 610 163 607 137 604 111 596 87 583 64 570 41 550 21 525 6 499-10 463-18 417-18 365-18 324-5 294 22 263 48 243 83 233 127l66 12C315 74 354 42 417 42 440 42 460 46 477 54 493 61 506 72 516 85 526 98 533 114 538 133 543 151 545 171 545 192l0 516 66 0z" horiz-adv-x="708" unicode="Ĳ"/><glyph d="M90 462l60 0 0-462-60 0M75 645C75 658 79 668 88 677 97 686 107 690 120 690 133 690 143 686 152 677 161 668 165 658 165 645 165 632 161 622 152 613 143 604 133 600 120 600 107 600 97 604 88 613 79 622 75 632 75 645M365-81C365-105 363-127 360-146 356-165 349-182 339-196 329-210 316-221 299-228 282-236 260-240 233-240 217-240 201-237 185-231l9 53C208-183 221-186 232-186 248-186 261-183 271-177 280-172 288-164 293-155 298-146 301-136 303-124 304-112 305-99 305-86l0 548 60 0M290 645C290 658 294 668 303 677 312 686 322 690 335 690 348 690 358 686 367 677 376 668 380 658 380 645 380 632 376 622 367 613 358 604 348 600 335 600 322 600 312 604 303 613 294 622 290 632 290 645z" horiz-adv-x="455" unicode="ĳ"/><glyph d="M385 208C385 187 384 163 381 137 378 111 370 87 357 64 344 41 324 21 299 6 273-10 237-18 191-18 139-18 98-5 68 22 37 48 17 83 7 127l66 12C89 74 128 42 191 42 214 42 234 46 251 54 267 61 280 72 290 85 300 98 307 114 312 133 317 151 319 171 319 192l0 516 66 0M315 896l70 0 108-144-65 0-81 108-81-108-59 0z" horiz-adv-x="482" unicode="Ĵ"/><glyph d="M150-81C150-105 148-127 145-146 141-165 134-182 124-196 114-210 101-221 84-228 67-236 45-240 18-240 2-240-14-237-30-231l9 53C-6-183 6-186 17-186 33-186 46-183 56-177 65-172 73-164 78-155 83-146 86-136 88-124 89-112 90-99 90-86l0 548 60 0M85 708l70 0 108-144-65 0-81 108-81-108-59 0z" horiz-adv-x="240" unicode="ĵ"/><glyph d="M97 708l66 0 0-312 6 0 343 312 91 0-358-324 378-384-95 0-359 366-6 0 0-366-66 0M311-66l65 0-62-165-53 0z" horiz-adv-x="611" unicode="Ķ"/><glyph d="M80 756l60 0 0-504 228 209 88 0-238-211 266-250-91 0-253 244 0-244-60 0M211-66l65 0-62-165-53 0z" horiz-adv-x="481" unicode="ķ"/><glyph d="M97 708l66 0 0-648 330 0 0-60-396 0M176 896l80 0-134-144-50 0z" horiz-adv-x="500" unicode="Ĺ"/><glyph d="M90 756l60 0 0-756-60 0M174 936l80 0-134-144-50 0z" horiz-adv-x="240" unicode="ĺ"/><glyph d="M97 708l66 0 0-648 330 0 0-60-396 0M270-66l65 0-62-165-53 0z" horiz-adv-x="500" unicode="Ļ"/><glyph d="M90 756l60 0 0-756-60 0M113-66l65 0-62-165-53 0z" horiz-adv-x="240" unicode="ļ"/><glyph d="M97 708l66 0 0-648 330 0 0-60-396 0M283 708l65 0-63-185-53 0z" horiz-adv-x="500" unicode="Ľ"/><glyph d="M90 756l60 0 0-756-60 0M270 708l65 0-63-185-53 0z" horiz-adv-x="240" unicode="ľ"/><glyph d="M97 708l66 0 0-648 330 0 0-60-396 0M338 345C338 358 343 370 352 379 361 388 373 393 386 393 399 393 411 388 420 379 429 370 434 358 434 345 434 332 429 320 420 311 411 302 399 297 386 297 373 297 361 302 352 311 343 320 338 332 338 345z" horiz-adv-x="500" unicode="Ŀ"/><glyph d="M90 756l60 0 0-756-60 0M234 375C234 388 239 400 248 409 257 418 269 423 282 423 295 423 307 418 316 409 325 400 330 388 330 375 330 362 325 350 316 341 307 332 295 327 282 327 269 327 257 332 248 341 239 350 234 362 234 375z" horiz-adv-x="336" unicode="ŀ"/><glyph d="M97 231l-72-64 0 65 72 63 0 413 66 0 0-358 216 189 0-62-216-189 0-228 330 0 0-60-396 0z" horiz-adv-x="500" unicode="Ł"/><glyph d="M90 324l-84-85 0 67 84 85 0 365 60 0 0-305 84 86 0-67-84-85 0-385-60 0z" horiz-adv-x="240" unicode="ł"/><glyph d="M97 708l85 0 431-620 2 0 0 620 66 0 0-708-85 0-431 620-2 0 0-620-66 0M446 896l80 0-134-144-50 0z" horiz-adv-x="778" unicode="Ń"/><glyph d="M80 332C80 341 80 351 79 364 78 376 78 388 78 401 77 414 77 426 76 437 75 448 75 456 75 462l60 0C136 445 136 428 137 412 137 396 138 386 139 381l3 0C154 406 174 428 202 447 230 465 263 474 300 474 336 474 365 468 388 457 411 446 429 431 442 413 455 394 464 373 469 349 474 325 476 300 476 275l0-275-60 0 0 272C416 291 414 309 411 327 408 344 402 360 394 374 385 388 374 399 359 408 344 416 324 420 300 420 278 420 257 416 238 409 218 401 201 389 187 374 172 358 161 338 153 315 144 291 140 263 140 231l0-231-60 0M312 708l80 0-134-144-50 0z" horiz-adv-x="556" unicode="ń"/><glyph d="M97 708l85 0 431-620 2 0 0 620 66 0 0-708-85 0-431 620-2 0 0-620-66 0M363-66l65 0-62-165-53 0z" horiz-adv-x="778" unicode="Ņ"/><glyph d="M80 332C80 341 80 351 79 364 78 376 78 388 78 401 77 414 77 426 76 437 75 448 75 456 75 462l60 0C136 445 136 428 137 412 137 396 138 386 139 381l3 0C154 406 174 428 202 447 230 465 263 474 300 474 336 474 365 468 388 457 411 446 429 431 442 413 455 394 464 373 469 349 474 325 476 300 476 275l0-275-60 0 0 272C416 291 414 309 411 327 408 344 402 360 394 374 385 388 374 399 359 408 344 416 324 420 300 420 278 420 257 416 238 409 218 401 201 389 187 374 172 358 161 338 153 315 144 291 140 263 140 231l0-231-60 0M255-66l65 0-62-165-53 0z" horiz-adv-x="556" unicode="ņ"/><glyph d="M97 708l85 0 431-620 2 0 0 620 66 0 0-708-85 0-431 620-2 0 0-620-66 0M425 752l-70 0-109 144 62 0 83-114 86 114 54 0z" horiz-adv-x="778" unicode="Ň"/><glyph d="M80 332C80 341 80 351 79 364 78 376 78 388 78 401 77 414 77 426 76 437 75 448 75 456 75 462l60 0C136 445 136 428 137 412 137 396 138 386 139 381l3 0C154 406 174 428 202 447 230 465 263 474 300 474 336 474 365 468 388 457 411 446 429 431 442 413 455 394 464 373 469 349 474 325 476 300 476 275l0-275-60 0 0 272C416 291 414 309 411 327 408 344 402 360 394 374 385 388 374 399 359 408 344 416 324 420 300 420 278 420 257 416 238 409 218 401 201 389 187 374 172 358 161 338 153 315 144 291 140 263 140 231l0-231-60 0M318 564l-70 0-109 144 62 0 83-114 86 114 54 0z" horiz-adv-x="556" unicode="ň"/><glyph d="M80 332C80 341 80 351 79 364 78 376 78 388 78 401 77 414 77 426 76 437 75 448 75 456 75 462l60 0C136 445 136 428 137 412 137 396 138 386 139 381l3 0C154 406 174 428 202 447 230 465 263 474 300 474 336 474 365 468 388 457 411 446 429 431 442 413 455 394 464 373 469 349 474 325 476 300 476 275l0-275-60 0 0 272C416 291 414 309 411 327 408 344 402 360 394 374 385 388 374 399 359 408 344 416 324 420 300 420 278 420 257 416 238 409 218 401 201 389 187 374 172 358 161 338 153 315 144 291 140 263 140 231l0-231-60 0M65 708l65 0-63-185-53 0z" horiz-adv-x="556" unicode="ŉ"/><glyph d="M51 354C51 408 60 458 78 503 96 548 121 588 153 621 185 654 224 679 269 698 314 717 363 726 417 726 471 726 521 717 566 698 611 679 649 654 681 621 713 588 738 548 756 503 774 458 783 408 783 354 783 300 774 250 756 205 738 159 713 120 681 87 649 54 611 28 566 10 521-9 471-18 417-18 363-18 314-9 269 10 224 28 185 54 153 87 121 120 96 159 78 205 60 250 51 300 51 354M117 354C117 310 124 269 138 231 152 193 172 160 198 132 224 104 256 82 293 66 330 50 371 42 417 42 463 42 505 50 542 66 579 82 610 104 636 132 662 160 682 193 696 231 710 269 717 310 717 354 717 398 710 439 696 477 682 515 662 548 636 576 610 604 579 626 542 642 505 658 463 666 417 666 371 666 330 658 293 642 256 626 224 604 198 576 172 548 152 515 138 477 124 439 117 398 117 354M550 799l-264 0 0 48 264 0z" horiz-adv-x="834" unicode="Ō"/><glyph d="M54 231C54 266 60 299 72 329 84 358 101 384 122 406 143 427 169 444 199 456 229 468 262 474 297 474 332 474 365 468 395 456 424 444 450 427 472 406 493 384 510 358 522 329 534 299 540 266 540 231 540 196 534 163 522 134 510 104 493 78 472 57 450 35 424 18 395 6 365-6 332-12 297-12 262-12 229-6 199 6 169 18 143 35 122 57 101 78 84 104 72 134 60 163 54 196 54 231M114 231C114 205 118 181 127 158 135 135 147 115 163 98 179 81 198 67 221 57 244 47 269 42 297 42 325 42 350 47 373 57 396 67 415 81 431 98 447 115 459 135 468 158 476 181 480 205 480 231 480 257 476 282 468 305 459 328 447 348 431 365 415 382 396 395 373 405 350 415 325 420 297 420 269 420 244 415 221 405 198 395 179 382 163 365 147 348 135 328 127 305 118 282 114 257 114 231M430 606l-264 0 0 48 264 0z" horiz-adv-x="594" unicode="ō"/><glyph d="M51 354C51 408 60 458 78 503 96 548 121 588 153 621 185 654 224 679 269 698 314 717 363 726 417 726 471 726 521 717 566 698 611 679 649 654 681 621 713 588 738 548 756 503 774 458 783 408 783 354 783 300 774 250 756 205 738 159 713 120 681 87 649 54 611 28 566 10 521-9 471-18 417-18 363-18 314-9 269 10 224 28 185 54 153 87 121 120 96 159 78 205 60 250 51 300 51 354M117 354C117 310 124 269 138 231 152 193 172 160 198 132 224 104 256 82 293 66 330 50 371 42 417 42 463 42 505 50 542 66 579 82 610 104 636 132 662 160 682 193 696 231 710 269 717 310 717 354 717 398 710 439 696 477 682 515 662 548 636 576 610 604 579 626 542 642 505 658 463 666 417 666 371 666 330 658 293 642 256 626 224 604 198 576 172 548 152 515 138 477 124 439 117 398 117 354M316 881C320 854 331 835 350 822 368 809 390 803 416 803 446 803 469 809 486 820 502 831 513 851 520 881l42 0C557 841 542 810 516 788 489 766 456 755 416 755 376 755 343 766 317 788 290 810 276 841 274 881z" horiz-adv-x="834" unicode="Ŏ"/><glyph d="M54 231C54 266 60 299 72 329 84 358 101 384 122 406 143 427 169 444 199 456 229 468 262 474 297 474 332 474 365 468 395 456 424 444 450 427 472 406 493 384 510 358 522 329 534 299 540 266 540 231 540 196 534 163 522 134 510 104 493 78 472 57 450 35 424 18 395 6 365-6 332-12 297-12 262-12 229-6 199 6 169 18 143 35 122 57 101 78 84 104 72 134 60 163 54 196 54 231M114 231C114 205 118 181 127 158 135 135 147 115 163 98 179 81 198 67 221 57 244 47 269 42 297 42 325 42 350 47 373 57 396 67 415 81 431 98 447 115 459 135 468 158 476 181 480 205 480 231 480 257 476 282 468 305 459 328 447 348 431 365 415 382 396 395 373 405 350 415 325 420 297 420 269 420 244 415 221 405 198 395 179 382 163 365 147 348 135 328 127 305 118 282 114 257 114 231M196 708C200 681 211 662 230 649 248 636 270 630 296 630 326 630 349 636 366 647 382 658 393 679 400 708l42 0C437 668 422 637 396 615 369 593 336 582 296 582 257 582 224 593 197 615 170 637 156 668 154 708z" horiz-adv-x="594" unicode="ŏ"/><glyph d="M51 354C51 408 60 458 78 503 96 548 121 588 153 621 185 654 224 679 269 698 314 717 363 726 417 726 471 726 521 717 566 698 611 679 649 654 681 621 713 588 738 548 756 503 774 458 783 408 783 354 783 300 774 250 756 205 738 159 713 120 681 87 649 54 611 28 566 10 521-9 471-18 417-18 363-18 314-9 269 10 224 28 185 54 153 87 121 120 96 159 78 205 60 250 51 300 51 354M117 354C117 310 124 269 138 231 152 193 172 160 198 132 224 104 256 82 293 66 330 50 371 42 417 42 463 42 505 50 542 66 579 82 610 104 636 132 662 160 682 193 696 231 710 269 717 310 717 354 717 398 710 439 696 477 682 515 662 548 636 576 610 604 579 626 542 642 505 658 463 666 417 666 371 666 330 658 293 642 256 626 224 604 198 576 172 548 152 515 138 477 124 439 117 398 117 354M412 896l80 0-134-144-50 0M558 896l80 0-134-144-50 0z" horiz-adv-x="834" unicode="Ő"/><glyph d="M54 231C54 266 60 299 72 329 84 358 101 384 122 406 143 427 169 444 199 456 229 468 262 474 297 474 332 474 365 468 395 456 424 444 450 427 472 406 493 384 510 358 522 329 534 299 540 266 540 231 540 196 534 163 522 134 510 104 493 78 472 57 450 35 424 18 395 6 365-6 332-12 297-12 262-12 229-6 199 6 169 18 143 35 122 57 101 78 84 104 72 134 60 163 54 196 54 231M114 231C114 205 118 181 127 158 135 135 147 115 163 98 179 81 198 67 221 57 244 47 269 42 297 42 325 42 350 47 373 57 396 67 415 81 431 98 447 115 459 135 468 158 476 181 480 205 480 231 480 257 476 282 468 305 459 328 447 348 431 365 415 382 396 395 373 405 350 415 325 420 297 420 269 420 244 415 221 405 198 395 179 382 163 365 147 348 135 328 127 305 118 282 114 257 114 231M295 708l80 0-134-144-50 0M441 708l80 0-134-144-50 0z" horiz-adv-x="594" unicode="ő"/><glyph d="M163 396l140 0C338 396 366 400 388 409 409 418 426 428 438 441 450 454 458 467 463 482 467 497 469 510 469 522 469 534 467 547 463 562 458 577 450 590 438 603 426 616 409 626 388 635 366 644 338 648 303 648l-140 0M97 708l186 0C292 708 305 708 321 707 337 706 354 704 373 701 392 698 411 692 430 685 449 678 467 667 482 653 497 639 510 621 520 600 530 579 535 553 535 522 535 488 529 460 518 438 506 416 491 398 474 385 456 371 436 361 415 354 394 347 373 343 354 340l206-340-75 0-199 336-123 0 0-336-66 0M332 896l80 0-134-144-50 0z" horiz-adv-x="593" unicode="Ŕ"/><glyph d="M80 332C80 341 80 351 79 364 78 376 78 388 78 401 77 414 77 426 76 437 75 448 75 456 75 462l60 0C136 445 136 428 137 412 137 396 138 386 139 381 154 408 174 431 198 448 222 465 251 474 286 474 292 474 298 474 304 473 309 472 315 470 321 469l-7-59C306 413 298 414 291 414 265 414 243 410 224 402 205 393 189 382 177 367 164 352 155 335 149 316 143 296 140 275 140 252l0-252-60 0M233 708l80 0-134-144-50 0z" horiz-adv-x="333" unicode="ŕ"/><glyph d="M163 396l140 0C338 396 366 400 388 409 409 418 426 428 438 441 450 454 458 467 463 482 467 497 469 510 469 522 469 534 467 547 463 562 458 577 450 590 438 603 426 616 409 626 388 635 366 644 338 648 303 648l-140 0M97 708l186 0C292 708 305 708 321 707 337 706 354 704 373 701 392 698 411 692 430 685 449 678 467 667 482 653 497 639 510 621 520 600 530 579 535 553 535 522 535 488 529 460 518 438 506 416 491 398 474 385 456 371 436 361 415 354 394 347 373 343 354 340l206-340-75 0-199 336-123 0 0-336-66 0M269-66l65 0-62-165-53 0z" horiz-adv-x="593" unicode="Ŗ"/><glyph d="M80 332C80 341 80 351 79 364 78 376 78 388 78 401 77 414 77 426 76 437 75 448 75 456 75 462l60 0C136 445 136 428 137 412 137 396 138 386 139 381 154 408 174 431 198 448 222 465 251 474 286 474 292 474 298 474 304 473 309 472 315 470 321 469l-7-59C306 413 298 414 291 414 265 414 243 410 224 402 205 393 189 382 177 367 164 352 155 335 149 316 143 296 140 275 140 252l0-252-60 0M128-66l65 0-62-165-53 0z" horiz-adv-x="333" unicode="ŗ"/><glyph d="M163 396l140 0C338 396 366 400 388 409 409 418 426 428 438 441 450 454 458 467 463 482 467 497 469 510 469 522 469 534 467 547 463 562 458 577 450 590 438 603 426 616 409 626 388 635 366 644 338 648 303 648l-140 0M97 708l186 0C292 708 305 708 321 707 337 706 354 704 373 701 392 698 411 692 430 685 449 678 467 667 482 653 497 639 510 621 520 600 530 579 535 553 535 522 535 488 529 460 518 438 506 416 491 398 474 385 456 371 436 361 415 354 394 347 373 343 354 340l206-340-75 0-199 336-123 0 0-336-66 0M329 752l-70 0-109 144 62 0 83-114 86 114 54 0z" horiz-adv-x="593" unicode="Ř"/><glyph d="M80 332C80 341 80 351 79 364 78 376 78 388 78 401 77 414 77 426 76 437 75 448 75 456 75 462l60 0C136 445 136 428 137 412 137 396 138 386 139 381 154 408 174 431 198 448 222 465 251 474 286 474 292 474 298 474 304 473 309 472 315 470 321 469l-7-59C306 413 298 414 291 414 265 414 243 410 224 402 205 393 189 382 177 367 164 352 155 335 149 316 143 296 140 275 140 252l0-252-60 0M222 564l-70 0-109 144 62 0 83-114 86 114 54 0z" horiz-adv-x="333" unicode="ř"/><glyph d="M116 131C133 101 156 79 184 64 211 49 243 42 278 42 300 42 321 45 340 52 359 59 376 68 391 80 405 92 416 107 425 124 433 141 437 160 437 181 437 206 432 226 422 242 411 258 397 271 380 282 363 292 343 301 322 308 300 315 278 323 255 330 232 337 209 346 188 355 166 364 146 377 129 392 112 407 98 425 88 448 77 471 72 499 72 532 72 563 78 591 91 616 103 640 120 660 141 677 162 693 186 705 213 714 240 722 269 726 299 726 338 726 374 719 407 706 440 692 468 669 492 637l-57-41C418 619 399 637 377 649 354 660 328 666 297 666 276 666 255 663 236 658 217 652 200 644 186 633 171 622 160 608 151 591 142 574 138 555 138 532 138 497 147 470 165 451 183 432 206 417 233 406 260 395 289 385 321 377 352 368 382 357 409 343 436 329 458 310 476 285 494 260 503 225 503 181 503 149 497 121 485 96 473 71 457 51 437 34 416 17 393 4 366-5 339-14 312-18 283-18 236-18 193-10 154 7 115 23 81 50 53 89M342 896l80 0-134-144-50 0z" horiz-adv-x="556" unicode="Ś"/><glyph d="M81 118C94 93 112 75 137 62 162 49 188 42 215 42 228 42 240 44 253 48 266 52 277 58 287 65 297 72 305 81 312 92 318 102 321 114 321 127 321 148 314 164 301 175 287 186 270 194 250 200 230 206 208 211 184 216 160 220 138 227 118 236 98 245 81 257 68 273 54 289 47 312 47 341 47 364 52 383 61 400 70 417 83 431 98 442 113 453 129 461 148 466 167 471 186 474 205 474 243 474 276 467 304 453 331 439 353 417 368 387l-54-32C303 376 289 393 272 404 255 415 232 420 205 420 194 420 183 418 172 415 160 412 149 407 140 401 131 395 123 387 117 378 110 369 107 358 107 346 107 325 114 310 128 300 141 290 158 282 178 277 198 271 220 266 244 262 268 258 290 252 310 243 330 234 347 221 361 204 374 187 381 162 381 131 381 107 377 86 368 69 359 51 346 36 331 24 315 12 297 3 277-3 257-9 236-12 214-12 174-12 138-4 105 11 72 26 46 50 28 82M266 708l80 0-134-144-50 0z" horiz-adv-x="426" unicode="ś"/><glyph d="M116 131C133 101 156 79 184 64 211 49 243 42 278 42 300 42 321 45 340 52 359 59 376 68 391 80 405 92 416 107 425 124 433 141 437 160 437 181 437 206 432 226 422 242 411 258 397 271 380 282 363 292 343 301 322 308 300 315 278 323 255 330 232 337 209 346 188 355 166 364 146 377 129 392 112 407 98 425 88 448 77 471 72 499 72 532 72 563 78 591 91 616 103 640 120 660 141 677 162 693 186 705 213 714 240 722 269 726 299 726 338 726 374 719 407 706 440 692 468 669 492 637l-57-41C418 619 399 637 377 649 354 660 328 666 297 666 276 666 255 663 236 658 217 652 200 644 186 633 171 622 160 608 151 591 142 574 138 555 138 532 138 497 147 470 165 451 183 432 206 417 233 406 260 395 289 385 321 377 352 368 382 357 409 343 436 329 458 310 476 285 494 260 503 225 503 181 503 149 497 121 485 96 473 71 457 51 437 34 416 17 393 4 366-5 339-14 312-18 283-18 236-18 193-10 154 7 115 23 81 50 53 89M263 896l70 0 108-144-65 0-81 108-81-108-59 0z" horiz-adv-x="556" unicode="Ŝ"/><glyph d="M81 118C94 93 112 75 137 62 162 49 188 42 215 42 228 42 240 44 253 48 266 52 277 58 287 65 297 72 305 81 312 92 318 102 321 114 321 127 321 148 314 164 301 175 287 186 270 194 250 200 230 206 208 211 184 216 160 220 138 227 118 236 98 245 81 257 68 273 54 289 47 312 47 341 47 364 52 383 61 400 70 417 83 431 98 442 113 453 129 461 148 466 167 471 186 474 205 474 243 474 276 467 304 453 331 439 353 417 368 387l-54-32C303 376 289 393 272 404 255 415 232 420 205 420 194 420 183 418 172 415 160 412 149 407 140 401 131 395 123 387 117 378 110 369 107 358 107 346 107 325 114 310 128 300 141 290 158 282 178 277 198 271 220 266 244 262 268 258 290 252 310 243 330 234 347 221 361 204 374 187 381 162 381 131 381 107 377 86 368 69 359 51 346 36 331 24 315 12 297 3 277-3 257-9 236-12 214-12 174-12 138-4 105 11 72 26 46 50 28 82M182 708l70 0 108-144-65 0-81 108-81-108-59 0z" horiz-adv-x="426" unicode="ŝ"/><glyph d="M116 131C133 101 156 79 183 64 210 49 242 42 278 42 300 42 321 45 340 52 359 59 376 68 391 80 405 92 416 107 425 124 433 141 437 160 437 181 437 206 432 226 422 242 411 258 397 271 380 282 363 292 343 301 322 308 300 315 278 323 255 330 232 337 209 346 188 355 166 364 146 377 129 392 112 407 98 425 88 448 77 471 72 499 72 532 72 563 78 591 91 616 103 640 120 660 141 677 162 693 186 705 213 714 240 722 269 726 299 726 338 726 374 719 407 706 440 692 468 669 492 637l-57-41C402 643 356 666 297 666 276 666 255 663 236 658 217 652 200 644 186 633 171 622 160 608 151 591 142 574 138 555 138 532 138 497 147 470 165 451 183 432 206 417 233 406 260 395 289 385 321 377 352 368 382 357 409 343 436 329 458 310 476 285 494 260 503 225 503 181 503 150 497 123 486 99 475 75 460 55 441 38 422 21 400 8 375-1 350-10 324-16 297-17l-34-47 2-2C274-61 284-59 296-59 317-59 337-65 354-77 371-89 379-107 379-131 379-146 376-159 369-170 362-181 354-189 343-196 332-203 319-208 306-211 293-214 280-216 267-216 234-216 202-209 172-195l14 32C209-174 234-180 262-180 269-180 276-179 283-177 290-176 297-173 304-170 310-167 315-162 319-157 323-152 325-145 325-137 325-122 319-111 307-104 295-98 282-95 269-95 254-95 240-98 225-103l-16 15 50 71C217-14 179-5 144 11 109 27 78 53 53 89z" horiz-adv-x="556" unicode="Ş"/><glyph d="M81 118C94 93 112 75 137 62 161 49 187 42 215 42 228 42 240 44 253 48 266 52 277 58 287 65 297 72 305 81 312 92 318 102 321 114 321 127 321 148 314 164 301 175 287 186 270 194 250 200 230 206 208 211 184 216 160 220 138 227 118 236 98 245 81 257 68 273 54 289 47 312 47 341 47 364 52 383 61 400 70 417 83 431 98 442 113 453 129 461 148 466 167 471 186 474 205 474 243 474 276 467 304 453 331 439 353 417 368 387l-54-32C303 376 289 393 272 404 255 415 233 420 205 420 194 420 183 418 172 415 160 412 149 407 140 401 131 395 123 387 117 378 110 369 107 358 107 346 107 325 114 310 128 300 141 290 158 282 178 277 198 271 220 266 244 262 268 258 290 252 310 243 330 234 347 221 361 204 374 187 381 162 381 131 381 109 377 90 369 73 361 56 350 41 337 29 323 17 307 8 289 1 271-6 252-10 232-11l-39-53 2-2C204-61 214-59 226-59 247-59 267-65 284-77 301-89 309-107 309-131 309-146 306-159 299-170 292-181 284-189 273-196 262-203 249-208 236-211 223-214 210-216 197-216 164-216 132-209 102-195l14 32C139-174 164-180 192-180 199-180 206-179 213-177 220-176 227-173 234-170 240-167 245-162 249-157 253-152 255-145 255-137 255-122 249-111 237-104 225-98 212-95 199-95 184-95 170-98 155-103l-16 15 55 77C158-9 126 0 97 15 68 30 45 52 28 82z" horiz-adv-x="426" unicode="ş"/><glyph d="M254 648l-242 0 0 60 550 0 0-60-242 0 0-648-66 0M259-66l65 0-62-165-53 0z" horiz-adv-x="574" unicode="Ţ"/><glyph d="M306 408l-132 0 0-301C174 86 180 70 191 59 202 48 218 42 238 42 249 42 261 44 273 47 284 50 295 53 306 58l5-54C300 0 287-4 272-7 257-10 244-12 233-12 212-12 193-9 178-2 163 4 150 12 141 23 132 34 125 46 121 61 116 75 114 90 114 107l0 301-100 0 0 54 100 0 0 133 60 0 0-133 132 0M158-66l65 0-62-165-53 0z" horiz-adv-x="333" unicode="ţ"/><glyph d="M254 648l-242 0 0 60 550 0 0-60-242 0 0-648-66 0M324 752l-70 0-109 144 62 0 83-114 86 114 54 0z" horiz-adv-x="574" unicode="Ť"/><glyph d="M306 408l-132 0 0-301C174 86 180 70 191 59 202 48 218 42 238 42 249 42 261 44 273 47 284 50 295 53 306 58l5-54C300 0 287-4 272-7 257-10 244-12 233-12 212-12 193-9 178-2 163 4 150 12 141 23 132 34 125 46 121 61 116 75 114 90 114 107l0 301-100 0 0 54 100 0 0 133 60 0 0-133 132 0M278 708l65 0-63-185-53 0z" horiz-adv-x="333" unicode="ť"/><glyph d="M470 414l-150 0 0-414-66 0 0 414-148 0 0 48 148 0 0 186-242 0 0 60 550 0 0-60-242 0 0-186 150 0z" horiz-adv-x="574" unicode="Ŧ"/><glyph d="M291 277l-117 0 0-170C174 86 180 70 191 59 202 48 218 42 238 42 249 42 261 44 273 47 284 50 295 53 306 58l5-54C300 0 287-4 272-7 257-10 244-12 233-12 212-12 193-9 178-2 163 4 150 12 141 23 132 34 125 46 121 61 116 75 114 90 114 107l0 170-87 0 0 48 87 0 0 83-100 0 0 54 100 0 0 133 60 0 0-133 132 0 0-54-132 0 0-83 117 0z" horiz-adv-x="333" unicode="ŧ"/><glyph d="M600 271C600 233 596 197 587 162 578 127 564 97 544 70 523 43 497 22 464 6 431-10 390-18 342-18 294-18 254-10 221 6 188 22 161 43 141 70 120 97 106 127 97 162 88 197 84 233 84 271l0 437 66 0 0-420C150 263 152 236 157 207 162 178 171 152 185 127 198 102 218 82 243 66 268 50 301 42 342 42 383 42 417 50 442 66 467 82 486 102 500 127 513 152 522 178 527 207 532 236 534 263 534 288l0 420 66 0M187 769C188 780 191 792 196 805 201 817 207 828 214 837 221 847 230 855 241 862 252 868 264 871 277 871 290 871 303 868 316 863 329 858 341 852 352 846 363 841 374 836 385 831 396 826 406 823 415 823 430 823 441 828 448 838 455 848 460 859 463 871l36 0C498 859 495 847 491 835 487 822 482 811 475 802 468 792 459 784 449 778 439 772 428 769 415 769 402 769 389 772 377 777 364 782 352 788 340 793 328 798 317 804 306 809 295 814 284 817 274 817 259 817 247 812 240 802 232 792 226 781 223 769z" horiz-adv-x="684" unicode="Ũ"/><glyph d="M471 130C471 121 471 111 472 99 473 86 473 74 474 61 474 48 474 37 475 26 476 15 476 6 476 0l-60 0C415 17 415 34 415 50 414 66 413 76 412 81l-3 0C397 56 377 34 349 16 321-3 288-12 251-12 215-12 186-6 163 5 140 16 122 31 109 50 96 68 87 89 82 113 77 137 75 162 75 187l0 275 60 0 0-272C135 171 137 153 140 136 143 118 149 102 158 88 166 74 178 63 193 55 208 46 227 42 251 42 273 42 294 46 314 54 333 61 350 73 365 89 379 104 390 124 399 148 407 171 411 199 411 231l0 231 60 0M121 581C122 592 125 604 130 617 135 629 141 640 148 649 155 659 164 667 175 674 186 680 198 683 211 683 224 683 237 680 250 675 263 670 275 664 286 658 297 653 308 648 319 643 330 638 340 635 349 635 364 635 375 640 382 650 389 660 394 671 397 683l36 0C432 671 429 659 425 647 421 634 416 623 409 614 402 604 393 596 384 590 374 584 362 581 349 581 336 581 323 584 311 589 298 594 286 600 274 605 262 610 251 616 240 621 229 626 218 629 208 629 193 629 181 624 174 614 166 604 160 593 157 581z" horiz-adv-x="556" unicode="ũ"/><glyph d="M600 271C600 233 596 197 587 162 578 127 564 97 544 70 523 43 497 22 464 6 431-10 390-18 342-18 294-18 254-10 221 6 188 22 161 43 141 70 120 97 106 127 97 162 88 197 84 233 84 271l0 437 66 0 0-420C150 263 152 236 157 207 162 178 171 152 185 127 198 102 218 82 243 66 268 50 301 42 342 42 383 42 417 50 442 66 467 82 486 102 500 127 513 152 522 178 527 207 532 236 534 263 534 288l0 420 66 0M475 799l-264 0 0 48 264 0z" horiz-adv-x="684" unicode="Ū"/><glyph d="M471 130C471 121 471 111 472 99 473 86 473 74 474 61 474 48 474 37 475 26 476 15 476 6 476 0l-60 0C415 17 415 34 415 50 414 66 413 76 412 81l-3 0C397 56 377 34 349 16 321-3 288-12 251-12 215-12 186-6 163 5 140 16 122 31 109 50 96 68 87 89 82 113 77 137 75 162 75 187l0 275 60 0 0-272C135 171 137 153 140 136 143 118 149 102 158 88 166 74 178 63 193 55 208 46 227 42 251 42 273 42 294 46 314 54 333 61 350 73 365 89 379 104 390 124 399 148 407 171 411 199 411 231l0 231 60 0M409 606l-264 0 0 48 264 0z" horiz-adv-x="556" unicode="ū"/><glyph d="M600 271C600 233 596 197 587 162 578 127 564 97 544 70 523 43 497 22 464 6 431-10 390-18 342-18 294-18 254-10 221 6 188 22 161 43 141 70 120 97 106 127 97 162 88 197 84 233 84 271l0 437 66 0 0-420C150 263 152 236 157 207 162 178 171 152 185 127 198 102 218 82 243 66 268 50 301 42 342 42 383 42 417 50 442 66 467 82 486 102 500 127 513 152 522 178 527 207 532 236 534 263 534 288l0 420 66 0M241 881C245 854 256 835 275 822 293 809 315 803 341 803 371 803 394 809 411 820 427 831 438 851 445 881l42 0C482 841 467 810 441 788 414 766 381 755 341 755 301 755 268 766 242 788 215 810 201 841 199 881z" horiz-adv-x="684" unicode="Ŭ"/><glyph d="M471 130C471 121 471 111 472 99 473 86 473 74 474 61 474 48 474 37 475 26 476 15 476 6 476 0l-60 0C415 17 415 34 415 50 414 66 413 76 412 81l-3 0C397 56 377 34 349 16 321-3 288-12 251-12 215-12 186-6 163 5 140 16 122 31 109 50 96 68 87 89 82 113 77 137 75 162 75 187l0 275 60 0 0-272C135 171 137 153 140 136 143 118 149 102 158 88 166 74 178 63 193 55 208 46 227 42 251 42 273 42 294 46 314 54 333 61 350 73 365 89 379 104 390 124 399 148 407 171 411 199 411 231l0 231 60 0M175 708C179 681 190 662 209 649 227 636 249 630 275 630 305 630 328 636 345 647 361 658 372 679 379 708l42 0C416 668 401 637 375 615 348 593 315 582 275 582 236 582 203 593 176 615 149 637 135 668 133 708z" horiz-adv-x="556" unicode="ŭ"/><glyph d="M600 271C600 233 596 197 587 162 578 127 564 97 544 70 523 43 497 22 464 6 431-10 390-18 342-18 294-18 254-10 221 6 188 22 161 43 141 70 120 97 106 127 97 162 88 197 84 233 84 271l0 437 66 0 0-420C150 263 152 236 157 207 162 178 171 152 185 127 198 102 218 82 243 66 268 50 301 42 342 42 383 42 417 50 442 66 467 82 486 102 500 127 513 152 522 178 527 207 532 236 534 263 534 288l0 420 66 0M250 837C250 850 253 862 258 874 263 885 269 895 278 904 286 913 296 920 307 925 318 930 331 932 344 932 357 932 369 929 380 924 391 919 401 912 410 903 418 894 424 883 429 872 434 861 436 849 436 836 436 824 434 812 429 801 424 790 418 780 410 771 401 762 391 755 380 750 369 745 357 742 344 742 331 742 318 745 307 750 296 755 286 761 278 770 269 779 263 789 258 800 253 811 250 824 250 837M400 837C400 854 395 868 384 879 373 890 360 896 343 896 326 896 313 890 302 879 291 867 286 853 286 836 286 819 292 806 303 795 314 784 327 778 343 778 360 778 373 784 384 795 395 806 400 820 400 837z" horiz-adv-x="684" unicode="Ů"/><glyph d="M471 130C471 121 471 111 472 99 473 86 473 74 474 61 474 48 474 37 475 26 476 15 476 6 476 0l-60 0C415 17 415 34 415 50 414 66 413 76 412 81l-3 0C397 56 377 34 349 16 321-3 288-12 251-12 215-12 186-6 163 5 140 16 122 31 109 50 96 68 87 89 82 113 77 137 75 162 75 187l0 275 60 0 0-272C135 171 137 153 140 136 143 118 149 102 158 88 166 74 178 63 193 55 208 46 227 42 251 42 273 42 294 46 314 54 333 61 350 73 365 89 379 104 390 124 399 148 407 171 411 199 411 231l0 231 60 0M184 649C184 662 187 674 192 686 197 697 203 707 212 716 220 725 230 732 241 737 252 742 265 744 278 744 291 744 303 741 314 736 325 731 335 724 344 715 352 706 358 695 363 684 368 673 370 661 370 648 370 636 368 624 363 613 358 602 352 592 344 583 335 574 325 567 314 562 303 557 291 554 278 554 265 554 252 557 241 562 230 567 220 573 212 582 203 591 197 601 192 613 187 624 184 636 184 649M334 649C334 666 329 680 318 691 307 702 294 708 277 708 260 708 247 702 236 691 225 679 220 665 220 648 220 631 226 618 237 607 248 596 261 590 277 590 294 590 307 596 318 607 329 618 334 632 334 649z" horiz-adv-x="556" unicode="ů"/><glyph d="M600 271C600 233 596 197 587 162 578 127 564 97 544 70 523 43 497 22 464 6 431-10 390-18 342-18 294-18 254-10 221 6 188 22 161 43 141 70 120 97 106 127 97 162 88 197 84 233 84 271l0 437 66 0 0-420C150 263 152 236 157 207 162 178 171 152 185 127 198 102 218 82 243 66 268 50 301 42 342 42 383 42 417 50 442 66 467 82 486 102 500 127 513 152 522 178 527 207 532 236 534 263 534 288l0 420 66 0M326 896l80 0-134-144-50 0M472 896l80 0-134-144-50 0z" horiz-adv-x="684" unicode="Ű"/><glyph d="M471 130C471 121 471 111 472 99 473 86 473 74 474 61 474 48 474 37 475 26 476 15 476 6 476 0l-60 0C415 17 415 34 415 50 414 66 413 76 412 81l-3 0C397 56 377 34 349 16 321-3 288-12 251-12 215-12 186-6 163 5 140 16 122 31 109 50 96 68 87 89 82 113 77 137 75 162 75 187l0 275 60 0 0-272C135 171 137 153 140 136 143 118 149 102 158 88 166 74 178 63 193 55 208 46 227 42 251 42 273 42 294 46 314 54 333 61 350 73 365 89 379 104 390 124 399 148 407 171 411 199 411 231l0 231 60 0M260 708l80 0-134-144-50 0M406 708l80 0-134-144-50 0z" horiz-adv-x="556" unicode="ű"/><glyph d="M442-183C431-192 419-200 406-206 392-213 376-216 357-216 330-216 308-209 291-194 274-179 265-159 265-134 265-111 272-89 285-69 298-50 314-32 331-17 285-16 246-7 215 10 184 26 158 47 139 74 119 100 105 130 97 164 88 198 84 234 84 271l0 437 66 0 0-420C150 263 152 236 157 207 162 178 171 152 185 127 198 102 218 82 243 66 268 50 301 42 342 42 383 42 416 50 441 66 466 82 486 102 500 127 513 152 522 178 527 207 532 236 534 263 534 288l0 420 66 0 0-437C600 236 596 202 589 169 581 136 568 107 551 81 534 55 511 33 483 16 454-1 420-12 379-16 366-29 353-44 342-62 331-81 325-100 325-121 325-152 339-168 368-168 382-168 394-165 403-160 412-155 418-150 423-145z" horiz-adv-x="684" unicode="Ų"/><glyph d="M505-183C494-192 482-200 469-206 455-213 439-216 420-216 393-216 371-209 354-194 337-179 328-159 328-134 328-120 331-107 336-94 341-81 348-69 357-58 365-47 374-37 385-27 396-17 406-8 416 0 415 17 415 34 415 50 414 66 413 76 412 81l-3 0C397 56 377 34 349 16 321-3 288-12 251-12 215-12 186-6 163 5 140 16 122 31 109 50 96 68 87 89 82 113 77 137 75 162 75 187l0 275 60 0 0-272C135 171 137 153 140 136 143 118 149 102 158 88 166 74 178 63 193 55 208 46 227 42 251 42 273 42 294 46 314 54 333 61 350 73 365 89 379 104 390 124 399 148 407 171 411 199 411 231l0 231 60 0 0-332C471 121 471 111 472 99 473 86 473 74 474 61 474 48 474 37 475 26 476 15 476 6 476 0l-15 0C454-5 446-12 438-21 429-30 421-39 414-50 407-61 401-72 396-84 391-96 388-108 388-121 388-152 402-168 431-168 445-168 457-165 466-160 475-155 481-150 486-145z" horiz-adv-x="556" unicode="ų"/><glyph d="M5 708l68 0 176-627 2 0 179 627 84 0 179-627 2 0 176 627 68 0-206-708-81 0-179 630-2 0-179-630-81 0M437 896l70 0 108-144-65 0-81 108-81-108-59 0z" horiz-adv-x="944" unicode="Ŵ"/><glyph d="M15 462l66 0 112-387 2 0 129 387 57 0 137-387 2 0 109 387 60 0-136-462-62 0-138 378-2 0-129-378-62 0M318 708l70 0 108-144-65 0-81 108-81-108-59 0z" horiz-adv-x="704" unicode="ŵ"/><glyph d="M254 305l-260 403 79 0 214-336 219 336 74 0-260-403 0-305-66 0M252 896l70 0 108-144-65 0-81 108-81-108-59 0z" horiz-adv-x="574" unicode="Ŷ"/><glyph d="M210-143C199-173 183-197 163-214 143-231 116-240 83-240 73-240 63-239 53-237 43-236 33-234 24-231l6 56C39-178 48-180 57-182 66-185 75-186 84-186 95-186 104-184 113-179 121-174 128-168 134-161 140-154 145-145 150-136 154-127 158-118 161-109l42 107-188 464 67 0 153-389 149 389 64 0M202 708l70 0 108-144-65 0-81 108-81-108-59 0z" horiz-adv-x="463" unicode="ŷ"/><glyph d="M23 52l414 596-408 0 0 60 493 0 0-54-417-594 428 0 0-60-510 0M329 896l80 0-134-144-50 0z" horiz-adv-x="556" unicode="Ź"/><glyph d="M27 36l277 372-263 0 0 54 346 0 0-36-276-372 288 0 0-54-372 0M266 708l80 0-134-144-50 0z" horiz-adv-x="426" unicode="ź"/><glyph d="M23 52l414 596-408 0 0 60 493 0 0-54-417-594 428 0 0-60-510 0M246 840C246 853 251 865 260 874 269 883 281 888 294 888 307 888 319 883 328 874 337 865 342 853 342 840 342 827 337 815 328 806 319 797 307 792 294 792 281 792 269 797 260 806 251 815 246 827 246 840z" horiz-adv-x="556" unicode="Ż"/><glyph d="M27 36l277 372-263 0 0 54 346 0 0-36-276-372 288 0 0-54-372 0M184 652C184 665 189 677 198 686 207 695 219 700 232 700 245 700 257 695 266 686 275 677 280 665 280 652 280 639 275 627 266 618 257 609 245 604 232 604 219 604 207 609 198 618 189 627 184 639 184 652z" horiz-adv-x="426" unicode="ż"/><glyph d="M116 131C133 101 156 79 184 64 211 49 243 42 278 42 300 42 321 45 340 52 359 59 376 68 391 80 405 92 416 107 425 124 433 141 437 160 437 181 437 206 432 226 422 242 411 258 397 271 380 282 363 292 343 301 322 308 300 315 278 323 255 330 232 337 209 346 188 355 166 364 146 377 129 392 112 407 98 425 88 448 77 471 72 499 72 532 72 563 78 591 91 616 103 640 120 660 141 677 162 693 186 705 213 714 240 722 269 726 299 726 338 726 374 719 407 706 440 692 468 669 492 637l-57-41C418 619 399 637 377 649 354 660 328 666 297 666 276 666 255 663 236 658 217 652 200 644 186 633 171 622 160 608 151 591 142 574 138 555 138 532 138 497 147 470 165 451 183 432 206 417 233 406 260 395 289 385 321 377 352 368 382 357 409 343 436 329 458 310 476 285 494 260 503 225 503 181 503 149 497 121 485 96 473 71 457 51 437 34 416 17 393 4 366-5 339-14 312-18 283-18 236-18 193-10 154 7 115 23 81 50 53 89M254-66l65 0-62-165-53 0z" horiz-adv-x="556" unicode="Ș"/><glyph d="M81 118C94 93 112 75 137 62 162 49 188 42 215 42 228 42 240 44 253 48 266 52 277 58 287 65 297 72 305 81 312 92 318 102 321 114 321 127 321 148 314 164 301 175 287 186 270 194 250 200 230 206 208 211 184 216 160 220 138 227 118 236 98 245 81 257 68 273 54 289 47 312 47 341 47 364 52 383 61 400 70 417 83 431 98 442 113 453 129 461 148 466 167 471 186 474 205 474 243 474 276 467 304 453 331 439 353 417 368 387l-54-32C303 376 289 393 272 404 255 415 232 420 205 420 194 420 183 418 172 415 160 412 149 407 140 401 131 395 123 387 117 378 110 369 107 358 107 346 107 325 114 310 128 300 141 290 158 282 178 277 198 271 220 266 244 262 268 258 290 252 310 243 330 234 347 221 361 204 374 187 381 162 381 131 381 107 377 86 368 69 359 51 346 36 331 24 315 12 297 3 277-3 257-9 236-12 214-12 174-12 138-4 105 11 72 26 46 50 28 82M192-66l65 0-62-165-53 0z" horiz-adv-x="426" unicode="ș"/><glyph d="M254 648l-242 0 0 60 550 0 0-60-242 0 0-648-66 0M259-66l65 0-62-165-53 0z" horiz-adv-x="574" unicode="Ț"/><glyph d="M306 408l-132 0 0-301C174 86 180 70 191 59 202 48 218 42 238 42 249 42 261 44 273 47 284 50 295 53 306 58l5-54C300 0 287-4 272-7 257-10 244-12 233-12 212-12 193-9 178-2 163 4 150 12 141 23 132 34 125 46 121 61 116 75 114 90 114 107l0 301-100 0 0 54 100 0 0 133 60 0 0-133 132 0M158-66l65 0-62-165-53 0z" horiz-adv-x="333" unicode="ț"/><glyph d="M150-81C150-105 148-127 145-146 141-165 134-182 124-196 114-210 101-221 84-228 67-236 45-240 18-240 2-240-14-237-30-231l9 53C-6-183 6-186 17-186 33-186 46-183 56-177 65-172 73-164 78-155 83-146 86-136 88-124 89-112 90-99 90-86l0 548 60 0z" horiz-adv-x="240" unicode="ȷ"/><glyph d="M153 564l-70 0-109 144 62 0 83-114 86 114 54 0z" horiz-adv-x="240" unicode="ˇ"/><glyph d="M252 606l-264 0 0 48 264 0z" horiz-adv-x="240" unicode="ˉ"/><glyph d="M18 708C22 681 33 662 52 649 70 636 92 630 118 630 148 630 171 636 188 647 204 658 215 679 222 708l42 0C259 668 244 637 218 615 191 593 158 582 118 582 79 582 46 593 19 615-8 637-22 668-24 708z" horiz-adv-x="240" unicode="˘"/><glyph d="M75 652C75 665 80 677 89 686 98 695 110 700 123 700 136 700 148 695 157 686 166 677 171 665 171 652 171 639 166 627 157 618 148 609 136 604 123 604 110 604 98 609 89 618 80 627 75 639 75 652z" horiz-adv-x="240" unicode="˙"/><glyph d="M27 649C27 662 30 674 35 686 40 697 46 707 55 716 63 725 73 732 84 737 95 742 108 744 121 744 134 744 146 741 157 736 168 731 178 724 187 715 195 706 201 695 206 684 211 673 213 661 213 648 213 636 211 624 206 613 201 602 195 592 187 583 178 574 168 567 157 562 146 557 134 554 121 554 108 554 95 557 84 562 73 567 63 573 55 582 46 591 40 601 35 613 30 624 27 636 27 649M177 649C177 666 172 680 161 691 150 702 137 708 120 708 103 708 90 702 79 691 68 679 63 665 63 648 63 631 69 618 80 607 91 596 104 590 120 590 137 590 150 596 161 607 172 618 177 632 177 649z" horiz-adv-x="240" unicode="˚"/><glyph d="M187-183C176-192 164-200 151-206 137-213 121-216 102-216 75-216 53-209 36-194 19-179 10-159 10-134 10-120 13-107 18-94 23-81 30-69 39-58 47-47 56-36 67-26 78-17 88-8 98 0l45 0C136-5 128-12 120-21 111-30 103-39 96-49 89-60 83-71 78-83 73-96 70-108 70-121 70-152 84-168 113-168 127-168 139-165 148-160 157-155 163-150 168-145z" horiz-adv-x="240" unicode="˛"/><glyph d="M93 708l80 0-134-144-50 0M239 708l80 0-134-144-50 0z" horiz-adv-x="240" unicode="˝"/><glyph d="M15 0l281 712 74 0 287-712M332 645l-226-583 455 0z" horiz-adv-x="670" unicode="Δ"/><glyph d="M434 0l0 181C464 186 491 196 514 210 537 223 556 240 572 261 587 282 599 305 607 331 614 357 618 385 618 415 618 451 612 484 599 514 586 544 568 570 545 592 522 613 496 630 465 642 434 654 401 660 366 660 331 660 298 654 267 642 236 629 210 612 187 591 164 569 147 543 134 513 121 483 114 450 114 415 114 386 118 358 126 332 133 305 145 282 161 261 176 240 196 223 219 209 242 195 268 186 298 181l0-181-251 0 0 58 197 0 0 82C213 149 185 162 161 180 136 198 116 219 99 244 82 268 69 295 60 324 51 353 47 384 47 416 47 461 56 502 73 539 90 576 113 609 142 636 171 663 205 684 244 699 283 714 324 721 367 721 410 721 450 714 489 699 528 684 562 663 591 636 620 609 643 576 660 539 677 502 685 461 685 417 685 385 681 354 672 325 663 295 651 268 634 243 617 218 597 197 573 180 548 162 520 149 488 140l0-82 197 0 0-58z" horiz-adv-x="744" unicode="Ω"/><glyph d="M471 130C471 121 471 111 472 99 473 86 473 74 474 61 474 48 474 37 475 26 476 15 476 6 476 0l-60 0C415 17 415 34 415 50 414 66 413 76 412 81l-3 0C397 56 377 34 349 16 321-3 288-12 251-12 224-12 201-9 182-2 163 5 147 14 134 26l0-254-59 0 0 690 60 0 0-272C135 171 137 153 140 136 143 118 149 102 158 88 166 74 178 63 193 55 208 46 227 42 251 42 273 42 294 46 314 54 333 61 350 73 365 89 379 104 390 124 399 148 407 171 411 199 411 231l0 231 60 0z" horiz-adv-x="556" unicode="μ"/><glyph d="M524 9C514 4 505 1 496-2 487-5 477-6 466-6 448-6 434-3 424 3 414 9 407 17 402 28 397 38 395 50 394 63 393 76 392 90 392 105l0 310-232 0 0-415-52 0 0 415-70 0 0 47 482 0 0-47-76 0 0-317C444 90 444 82 445 75 446 68 448 61 451 56 454 51 458 46 464 43 469 40 477 38 488 38 493 38 499 39 506 40 512 41 518 43 524 45z" horiz-adv-x="563" unicode="π"/><glyph d="M289 742l46-28-457-748-45 28z" horiz-adv-x="168" unicode="⁄"/><glyph d="M407 42C389 26 370 14 349 5 328-4 307-8 285-8 250-8 221 2 198 22 175 41 164 72 164 114l0 129-63-68-21 28 84 82 0 261C164 600 176 642 200 671 223 700 252 715 287 715 318 715 343 704 362 683 381 661 391 631 391 593 391 544 377 493 348 442 319 390 277 335 220 277l0-152C220 106 223 91 228 79 233 67 239 58 247 51 254 44 263 39 273 36 282 33 292 32 301 32 314 32 328 35 343 40 358 45 373 54 388 66M346 588C346 616 341 638 330 655 319 671 304 679 287 679 270 679 254 669 241 650 227 630 220 599 220 557l0-239C262 366 294 413 315 460 336 506 346 549 346 588z" horiz-adv-x="500" unicode="ℓ"/><glyph d="M434 0l0 181C464 186 491 196 514 210 537 223 556 240 572 261 587 282 599 305 607 331 614 357 618 385 618 415 618 451 612 484 599 514 586 544 568 570 545 592 522 613 496 630 465 642 434 654 401 660 366 660 331 660 298 654 267 642 236 629 210 612 187 591 164 569 147 543 134 513 121 483 114 450 114 415 114 386 118 358 126 332 133 305 145 282 161 261 176 240 196 223 219 209 242 195 268 186 298 181l0-181-251 0 0 58 197 0 0 82C213 149 185 162 161 180 136 198 116 219 99 244 82 268 69 295 60 324 51 353 47 384 47 416 47 461 56 502 73 539 90 576 113 609 142 636 171 663 205 684 244 699 283 714 324 721 367 721 410 721 450 714 489 699 528 684 562 663 591 636 620 609 643 576 660 539 677 502 685 461 685 417 685 385 681 354 672 325 663 295 651 268 634 243 617 218 597 197 573 180 548 162 520 149 488 140l0-82 197 0 0-58z" horiz-adv-x="744" unicode="Ω"/><glyph d="M157 259l0-181C196 39 245 19 302 19 344 19 380 29 411 48 442 67 470 97 495 139l35-21C515 94 499 74 484 57 468 40 451 26 433 15 414 4 394-4 373-9 352-14 328-17 302-17 263-17 227-10 196 5 164 19 137 39 114 64 91 89 74 118 62 151 50 184 44 220 44 259 44 298 50 334 62 368 74 401 91 430 114 455 137 480 164 499 196 514 227 528 263 535 302 535 341 535 376 528 408 515 439 501 466 482 489 458 512 433 529 404 542 371 555 337 561 300 561 259M448 295l0 145C406 480 357 500 301 500 245 500 197 480 157 440l0-145z" horiz-adv-x="500" unicode="℮"/><glyph d="M455 363C455 326 452 286 447 243 442 199 431 158 415 121 399 83 376 51 347 26 317 1 278-12 230-12 199-12 171-6 146 7 121 19 101 35 84 56 67 77 54 101 45 128 36 155 31 183 31 212 31 241 35 268 44 294 53 320 65 343 82 362 99 381 119 397 143 408 167 419 194 425 225 425 258 425 288 417 317 402 346 387 370 366 391 341 391 350 391 358 392 367 392 376 392 384 392 393 392 421 389 451 384 483 378 514 368 544 355 571 341 598 323 621 300 639 277 657 248 666 213 666 190 666 170 662 153 653 136 644 118 633 101 620l-36 43C86 682 109 696 132 706 155 716 181 721 210 721 242 721 270 716 295 706 320 695 341 681 359 663 377 645 392 624 405 601 417 577 427 552 434 525 441 498 447 471 450 444 453 416 455 389 455 363M386 278C368 302 346 323 319 342 292 360 263 369 231 369 208 369 189 365 172 356 155 347 140 336 129 321 117 306 108 289 103 270 97 251 94 231 94 210 94 190 97 170 103 150 108 130 117 112 129 96 140 79 155 66 172 56 189 46 208 41 231 41 260 41 284 49 303 65 322 81 338 101 350 125 362 149 371 175 376 202 381 229 385 255 386 278z" horiz-adv-x="496" unicode="∂"/><glyph d="M15 0l281 712 74 0 287-712M332 645l-226-583 455 0z" horiz-adv-x="670" unicode="∆"/><glyph d="M575-214l0 938-438 0 0-938-66 0 0 1000 570 0 0-1000z" horiz-adv-x="711" unicode="∏"/><glyph d="M25-214l0 55 329 448-315 441 0 56 527 0 0-62-442 0 309-435-328-442 473 0 0-61z" horiz-adv-x="604" unicode="∑"/><glyph d="M78 327l510 0 0-48-510 0z" horiz-adv-x="666" unicode="−"/><glyph d="M289 742l46-28-457-748-45 28z" horiz-adv-x="168" unicode="∕"/><glyph d="M82 318C82 331 87 343 96 352 105 361 117 366 130 366 143 366 155 361 164 352 173 343 178 331 178 318 178 305 173 293 164 284 155 275 143 270 130 270 117 270 105 275 96 284 87 293 82 305 82 318z" horiz-adv-x="260" unicode="∙"/><glyph d="M292-214l-66 0-164 340-46-22-24 50 100 48 158-332 189 916 63 0z" horiz-adv-x="493" unicode="√"/><glyph d="M700 252C700 231 697 212 690 194 683 176 674 160 662 147 650 134 635 123 618 116 601 108 581 104 560 104 541 104 522 107 505 114 488 120 471 128 456 139 440 149 425 160 411 173 397 186 384 198 371 211 356 199 342 187 328 174 314 161 300 150 285 140 270 129 254 121 237 114 220 107 201 104 181 104 160 104 141 108 124 115 107 122 92 133 80 146 67 159 58 174 51 192 44 209 41 228 41 249 41 269 44 288 51 306 57 324 66 340 78 354 90 367 105 378 122 386 139 393 158 397 179 397 198 397 217 394 235 387 252 380 269 371 285 360 300 349 315 337 330 324 344 311 358 298 371 285 384 298 398 311 412 324 425 337 440 350 455 361 470 372 486 381 503 388 520 395 538 398 558 398 579 398 599 394 616 387 633 380 648 370 661 357 674 344 683 328 690 310 697 292 700 273 700 252M643 249C643 274 636 296 623 314 609 332 588 341 560 341 546 341 532 338 519 332 505 325 492 317 479 308 466 298 454 288 442 277 430 266 419 257 409 248 420 239 431 229 443 219 454 209 467 200 480 191 493 182 506 175 520 170 533 165 548 162 563 162 588 162 608 170 622 187 636 204 643 224 643 249M333 249C323 258 312 267 300 278 288 288 275 298 262 307 248 316 234 324 220 331 206 337 192 340 178 340 165 340 154 338 144 333 134 328 126 321 119 313 112 304 107 295 104 284 100 273 98 262 98 250 98 225 105 204 120 187 135 170 155 162 182 162 196 162 210 165 224 171 237 176 251 183 264 192 277 201 289 210 301 221 313 231 324 240 333 249z" horiz-adv-x="741" unicode="∞"/><glyph d="M406 736C406 725 403 716 396 711 389 705 380 702 369 702 360 702 353 704 348 708 343 712 340 717 337 722 334 727 331 731 328 736 325 740 322 742 317 742 309 742 303 738 298 729 293 720 290 710 288 697 285 684 284 669 283 654 282 639 281 624 282 610 282 595 282 583 283 572 283 561 283 554 283 551l0-504C283 26 283 0 282-29 281-59 277-88 270-115 263-142 251-165 234-184 217-203 193-213 161-213 147-213 134-209 121-202 108-195 101-183 101-166 101-157 104-149 111-143 117-137 125-134 134-134 143-134 149-136 154-140 159-144 163-148 166-153 169-158 171-162 174-166 177-170 180-172 184-172 193-172 199-164 204-149 209-134 212-117 214-98 215-79 216-61 216-44 216-27 216-17 216-13l1 21 0 495C217 518 217 536 216 556 215 576 216 597 217 618 218 639 220 659 224 679 227 699 234 717 243 733 252 749 264 762 279 772 294 781 313 786 336 786 343 786 351 785 360 784 368 782 376 779 383 775 390 771 395 766 400 760 404 753 406 745 406 736z" horiz-adv-x="543" unicode="∫"/><glyph d="M589 397C587 381 583 365 578 350 572 335 564 321 555 310 546 298 534 289 521 282 507 275 491 271 472 271 451 271 429 275 404 283 379 290 355 299 330 308 305 317 282 326 259 333 236 340 214 344 195 344 172 344 153 336 139 320 125 304 116 285 111 264l-33 0C81 281 85 297 90 312 95 327 103 341 112 353 121 365 132 375 145 382 158 389 175 392 194 392 215 392 237 388 262 381 286 374 311 365 336 356 360 347 384 338 408 331 432 323 454 319 474 319 499 319 517 327 530 342 543 357 552 375 557 397M589 226C587 210 583 194 578 179 572 164 564 150 555 139 546 127 534 118 521 111 507 104 491 100 472 100 451 100 429 104 404 112 379 119 355 128 330 137 305 146 282 155 259 162 236 169 214 173 195 173 172 173 153 165 139 149 125 133 116 114 111 93l-33 0C81 110 85 126 90 141 95 156 103 170 112 182 121 194 132 204 145 211 158 218 175 221 194 221 215 221 237 217 262 210 286 203 311 194 336 185 360 176 384 167 408 160 432 152 454 148 474 148 499 148 517 156 530 171 543 186 552 204 557 226z" horiz-adv-x="666" unicode="≈"/><glyph d="M294 126l-75-142-42 21 64 121-153 0 0 48 178 0 75 142-253 0 0 48 279 0 77 145 41-22-65-123 158 0 0-48-183 0-76-142 259 0 0-48z" horiz-adv-x="666" unicode="≠"/><glyph d="M88 12l0 47 490 0 0-47M88 301l0 56 490 184 0-52-431-161 431-160 0-51z" horiz-adv-x="666" unicode="≤"/><glyph d="M88 117l0 51 431 160-431 161 0 52 490-184 0-56M88 12l0 47 490 0 0-47z" horiz-adv-x="666" unicode="≥"/><glyph d="M327-35l-63 0-169 391 169 391 63 0 171-391M296 681l-136-325 136-325 137 325z" horiz-adv-x="593" unicode="◊"/><glyph d="M178 752l-50 0-134 144 80 0z" horiz-adv-x="240" unicode=""/><glyph d="M166 896l80 0-134-144-50 0z" horiz-adv-x="240" unicode=""/><glyph d="M85 896l70 0 108-144-65 0-81 108-81-108-59 0z" horiz-adv-x="240" unicode=""/><glyph d="M153 752l-70 0-109 144 62 0 83-114 86 114 54 0z" horiz-adv-x="240" unicode=""/><glyph d="M-36 769C-35 780-32 792-27 805-22 817-16 828-9 837-2 847 7 855 18 862 29 868 41 871 54 871 67 871 80 868 93 863 106 858 118 852 129 846 140 841 151 836 162 831 173 826 183 823 192 823 207 823 218 828 225 838 232 848 237 859 240 871l36 0C275 859 272 847 268 835 264 822 259 811 252 802 245 792 236 784 226 778 216 772 205 769 192 769 179 769 166 772 154 777 141 782 129 788 117 793 105 798 94 804 83 809 72 814 61 817 51 817 36 817 24 812 17 802 9 792 3 781 0 769z" horiz-adv-x="240" unicode=""/><glyph d="M-23 840C-23 853-18 865-9 874 0 883 12 888 25 888 38 888 50 883 59 874 68 865 73 853 73 840 73 827 68 815 59 806 50 797 38 792 25 792 12 792 0 797-9 806-18 815-23 827-23 840M167 840C167 853 172 865 181 874 190 883 202 888 215 888 228 888 240 883 249 874 258 865 263 853 263 840 263 827 258 815 249 806 240 797 228 792 215 792 202 792 190 797 181 806 172 815 167 827 167 840z" horiz-adv-x="240" unicode=""/><glyph d="M252 799l-264 0 0 48 264 0z" horiz-adv-x="240" unicode=""/><glyph d="M18 881C22 854 33 835 52 822 70 809 92 803 118 803 148 803 171 809 188 820 204 831 215 851 222 881l42 0C259 841 244 810 218 788 191 766 158 755 118 755 78 755 45 766 19 788-8 810-22 841-24 881z" horiz-adv-x="240" unicode=""/><glyph d="M27 837C27 850 30 862 35 874 40 885 46 895 55 904 63 913 73 920 84 925 95 930 108 932 121 932 134 932 146 929 157 924 168 919 178 912 187 903 195 894 201 883 206 872 211 861 213 849 213 836 213 824 211 812 206 801 201 790 195 780 187 771 178 762 168 755 157 750 146 745 134 742 121 742 108 742 95 745 84 750 73 755 63 761 55 770 46 779 40 789 35 800 30 811 27 824 27 837M177 837C177 854 172 868 161 879 150 890 137 896 120 896 103 896 90 890 79 879 68 867 63 853 63 836 63 819 69 806 80 795 91 784 104 778 120 778 137 778 150 784 161 795 172 806 177 820 177 837z" horiz-adv-x="240" unicode=""/><glyph d="M93 896l80 0-134-144-50 0M239 896l80 0-134-144-50 0z" horiz-adv-x="240" unicode=""/><glyph d="M75 840C75 853 80 865 89 874 98 883 110 888 123 888 136 888 148 883 157 874 166 865 171 853 171 840 171 827 166 815 157 806 148 797 136 792 123 792 110 792 98 797 89 806 80 815 75 827 75 840z" horiz-adv-x="240" unicode=""/><glyph d="M92 708l65 0-63-185-53 0z" horiz-adv-x="240" unicode=""/><glyph d="M92-66l65 0-62-165-53 0z" horiz-adv-x="240" unicode=""/><glyph d="M135 594l-65 0 63 165 53 0z" horiz-adv-x="240" unicode=""/><glyph d="M222 117l0 67 56 0 0-67M225 234l-2 17C223 288 227 315 236 332 241 341 247 350 254 360 261 369 271 380 282 391 303 411 317 427 323 439 329 450 332 462 332 474 332 498 325 518 310 535 295 551 277 559 256 559 235 559 218 552 203 537 188 522 178 498 174 464l-50 8C129 520 143 555 168 577 193 598 223 609 259 609 295 609 325 597 348 574 371 550 383 518 383 478 383 457 379 437 371 420 362 402 345 381 320 358 295 336 281 319 277 306 273 293 271 269 271 234M462 50l0 617-412 0 0-617M512 718l0-718-512 0 0 718z" horiz-adv-x="512" unicode=""/><glyph d="M369 462l60 0 0-462-60 0M354 645C354 658 358 668 367 677 376 686 386 690 399 690 412 690 422 686 431 677 440 668 444 658 444 645 444 632 440 622 431 613 422 604 412 600 399 600 386 600 376 604 367 613 358 622 354 632 354 645M114 408l-96 0 0 54 96 0 0 151C114 643 119 668 128 688 137 707 148 723 161 735 174 747 189 756 206 761 222 766 237 768 252 768 280 768 303 764 321 756l-12-52C296 711 278 714 255 714 201 714 174 673 174 591l0-129 108 0 0-54-108 0 0-408-60 0z" horiz-adv-x="519" unicode="ﬁ"/><glyph d="M114 408l-96 0 0 54 96 0 0 151C114 643 119 668 128 688 137 707 148 723 161 735 174 747 189 756 206 761 222 766 237 768 252 768 280 768 303 764 321 756l-12-52C296 711 278 714 255 714 201 714 174 673 174 591l0-129 108 0 0-54-108 0 0-408-60 0M369 756l60 0 0-756-60 0z" horiz-adv-x="519" unicode="ﬂ"/></font>
</svg>
